[bittorrent] Dead String Brothers The Ark Ann Arbor, Michigan 7/30/2009

Automated Mailer noreply-bt.e at etree.org
Fri Jul 31 09:02:51 MDT 2009


Band:           Other
Torrent Name:   Dead String Brothers The Ark Ann Arbor, Michigan 7/30/2009
Uploaded by:    zmanatl
DB Link:        
Details:        http://bt.etree.org/details.php?id=527154

Contact the seeder at http://db.etree.org/zmanatl

If the link to this show does not work, it was probably removed for
being non-trade-friendly.

Description / text file:
-------------------------
Dead String Brothers
The Ark
Ann Arbor, Michigan
7/30/2009

Source: Schoeps CCM4V'S(din)>Lunatec V2>Benchmark AD2K>
Sound Devices 722 (24/48) 
Location: BOB/DFC/KFC/ZFC/AARP Row D, Seat 4, 6' High
DSP: Sound Devices 722>Sound Forge 9.0>CD Wave>flac(16)
Recorded By: Z-Man
Seeded By: Z-Man
  
Disc I 

01 Introduction By Robin
02 You Look Like The Devil
03 If You Want Me To
04 The Moonlight Only Knows
05 Blindfolded
06 Sacred Heart
07 Unclouded Day

Show Notes: Joe Wilson's First Show With the Band.

Flac fingerprint 

deadstringbros2009-07-30d01t01.flac:65e01e859dd6cd8c353dc6b5210f6d50
deadstringbros2009-07-30d01t02.flac:fa555dcac683e8bcf328d0e626f4c429
deadstringbros2009-07-30d01t03.flac:2c738222694e9d0cb45d86c3183598f7
deadstringbros2009-07-30d01t04.flac:92ecb4a2a136ac1c5f0ae4923b9bd921
deadstringbros2009-07-30d01t05.flac:c8b853969979f218b23d97825ab9ef7f
deadstringbros2009-07-30d01t06.flac:b5f6b224fb03ef78e583815cd61c6e02
deadstringbros2009-07-30d01t07.flac:0a66bb4499a212d9b6b87eec4e667220

shntool 

    length     expanded size    cdr  WAVE problems  fmt   ratio  filename
     3:10.11       33541916 B   ---   --   ---xx   flac  0.4071  deadstringbros2009-07-30d01t01.flac
     3:45.30       39760604 B   ---   --   ---xx   flac  0.5778  deadstringbros2009-07-30d01t02.flac
     4:57.67       52548428 B   ---   --   ---xx   flac  0.4783  deadstringbros2009-07-30d01t03.flac
     3:13.54       34172252 B   ---   --   ---xx   flac  0.5068  deadstringbros2009-07-30d01t04.flac
     4:27.26       47159996 B   ---   --   ---xx   flac  0.4653  deadstringbros2009-07-30d01t05.flac
     5:38.00       59623244 B   ---   --   ---xx   flac  0.5309  deadstringbros2009-07-30d01t06.flac
     6:26.32       68165708 B   ---   --   ---xx   flac  0.5359  deadstringbros2009-07-30d01t07.flac
    31:38.70      334972148 B                            0.5051  (7 files)








More information about the bittorrent mailing list