[bittorrent] Mike Boyd And Friends Circus Bar Ann Arbor, Michigan 7/29/2009

Automated Mailer noreply-bt.e at etree.org
Thu Jul 30 10:57:22 MDT 2009


Band:           Other
Torrent Name:   Mike Boyd And Friends Circus Bar Ann Arbor, Michigan 7/29/2009
Uploaded by:    zmanatl
DB Link:        
Details:        http://bt.etree.org/details.php?id=527127

Contact the seeder at http://db.etree.org/zmanatl

If the link to this show does not work, it was probably removed for
being non-trade-friendly.

Description / text file:
-------------------------
Mike Boyd And Friends
Circus Bar
Ann Arbor, Michigan
7/29/2009

Source: Schoeps CCM4V'S(din)>Lunatec V2>Benchmark AD2K>
Sound Devices 722 (24/48) 
Location: FOB/DFC/KFC/ZFC/AARP 5' From Stage, 7' High
DSP: Sound Devices 722>Sound Forge 9.0>CD Wave>flac(16)
Recorded By: Z-Man
Seeded By: Z-Man
  
Disc I 1st Set

01 Intro
02 Nine Pound Hammer
03 Rise And Shine
04 Chasing After Heartaches and Running From My Dream
05 
06 Let Me Love You Baby
07 Lonesome Train
08 
09 Six Days On The Road
10 Baby You're So Square
11 14 Carat Mind
12 
13 
14 Spoonful
15 Doin' My Time
16 
17 The Race Is On
Open Jam:
18 Ross and Ukelele
19 Ross, Brennan, and Ukelele
20 Brennan and Ross

Disc II 2nd Set

01 *Around and Around
02 *
03 *Turn Me Loose, Set Me Free
04 *Cripple Creek
05 Can't Stop Myself
06 Thunderbolt
07 
08 
09 Everytime You Laugh, I'm Somewhere Cryin'
10 Wild Side Of Life
11 Forget These Lonesome Tears In My Eyes
12 
13 #Feelin' Allright 
14 Nervous Breakdown 
15 Come Back Baby

Muke Boyd On Guitar and Vocals
John Latini On Lap Steel
Brennan Andes On Bass and Vocals
Griffin Bastian on Drums

* With Jesse Clayton on Keyboard
# With Ross Huff on Trumpet

Flac fingerprint 

mikeboyd2009-07-29d01t01.flac:9678ee54bd796e997e8965241400e546
mikeboyd2009-07-29d01t02.flac:0b62f9b642f8312250a28c25fe629f73
mikeboyd2009-07-29d01t03.flac:c755f605e247d08b717879a724dc3cf4
mikeboyd2009-07-29d01t04.flac:9767712e2ba014f71cc70a2fe44f237f
mikeboyd2009-07-29d01t05.flac:1181e660d625407bb94a6d74b98e7834
mikeboyd2009-07-29d01t06.flac:84a075b4e6ab525486d1ebd6a5122087
mikeboyd2009-07-29d01t07.flac:349b8b1a794685f244810499ebae92d5
mikeboyd2009-07-29d01t08.flac:e6a8fb0fe79c0404a88e7381522fd7b9
mikeboyd2009-07-29d01t09.flac:11fc1a951f628961625cf7fa4a1d73ce
mikeboyd2009-07-29d01t10.flac:6501c0dc1403a221aba9731359b7cd4f
mikeboyd2009-07-29d01t11.flac:7636c0ed56ed504f30046be239fd4d3a
mikeboyd2009-07-29d01t12.flac:df8b405d4496a977b94c93c4a3b653df
mikeboyd2009-07-29d01t13.flac:7f0dbeab1265e7dfca48a1ae0fe90788
mikeboyd2009-07-29d01t14.flac:01c37281548a41c6de3f28cdb8af3803
mikeboyd2009-07-29d01t15.flac:94cc6b44762730e0c5162cccb0e7ff04
mikeboyd2009-07-29d01t16.flac:e3e1417a55336862486124aab67f2a24
mikeboyd2009-07-29d01t17.flac:c5b9bd30e7ff300134e8ab4fea4f2fe9
mikeboyd2009-07-29d01t18.flac:3a304b3993788ed5d9b3a6978527963d
mikeboyd2009-07-29d01t19.flac:624dcb25ed8c0786a1d45f4dad86aaeb
mikeboyd2009-07-29d01t20.flac:9b8aafef2a7772dccfdec38baaab097e
mikeboyd2009-07-29d02t01.flac:8a72b190f91fa36e5f84faa50a1416f8
mikeboyd2009-07-29d02t02.flac:6546655e4cb46799d8d966ea2ed9a7cb
mikeboyd2009-07-29d02t03.flac:bfc379ae3ae61d4882cbeed5bbb79bb3
mikeboyd2009-07-29d02t04.flac:c052dbdf98ca0eb356e147026a2227f3
mikeboyd2009-07-29d02t05.flac:42a632a8390b549808c156d599606841
mikeboyd2009-07-29d02t06.flac:aadff997a0310b2f3ccedb58730a5105
mikeboyd2009-07-29d02t07.flac:7475435a581b5b1a5c5e53c5caa6e14a
mikeboyd2009-07-29d02t08.flac:604f5547cc33071e007c5684f285d176
mikeboyd2009-07-29d02t09.flac:56dda7fbcb1ef2bc0809aeed9846cf28
mikeboyd2009-07-29d02t10.flac:e1a79b2e09c96c71589af923b2d1a71c
mikeboyd2009-07-29d02t11.flac:fe5cedb58478e9dda0c158dc6c274990
mikeboyd2009-07-29d02t12.flac:6f78f8a61339a56d57ef1f21081e8cf7
mikeboyd2009-07-29d02t13.flac:a727d32072573058132d6db6b0b9999c
mikeboyd2009-07-29d02t14.flac:a5a4313b57bd83e78944ec597a474401
mikeboyd2009-07-29d02t15.flac:1cb821216309697f4162b5920ecaeeb7

shntool 

    length     expanded size    cdr  WAVE problems  fmt   ratio  filename
     0:36.15        6385724 B   ---   --   ---xx   flac  0.4210  mikeboyd2009-07-29d01t01.flac
     3:51.64       40898972 B   ---   --   ---xx   flac  0.4723  mikeboyd2009-07-29d01t02.flac
     5:37.55       59576204 B   ---   --   ---xx   flac  0.4077  mikeboyd2009-07-29d01t03.flac
     3:18.14       34960172 B   ---   --   ---xx   flac  0.3779  mikeboyd2009-07-29d01t04.flac
     4:39.13       49246220 B   ---   --   ---xx   flac  0.4476  mikeboyd2009-07-29d01t05.flac
     6:22.20       67431884 B   ---   --   ---xx   flac  0.4777  mikeboyd2009-07-29d01t06.flac
     2:31.18       26678780 B   ---   --   ---xx   flac  0.4162  mikeboyd2009-07-29d01t07.flac
     2:59.61       31719116 B   ---   --   ---xx   flac  0.4167  mikeboyd2009-07-29d01t08.flac
     3:39.31       38704556 B   ---   --   ---xx   flac  0.4681  mikeboyd2009-07-29d01t09.flac
     2:33.23       27043340 B   ---   --   ---xx   flac  0.4119  mikeboyd2009-07-29d01t10.flac
     4:27.27       47162348 B   ---   --   ---xx   flac  0.4798  mikeboyd2009-07-29d01t11.flac
     3:31.25       37279244 B   ---   --   ---xx   flac  0.4426  mikeboyd2009-07-29d01t12.flac
     2:19.46       24627836 B   ---   --   ---xx   flac  0.4900  mikeboyd2009-07-29d01t13.flac
     7:16.56       77042156 B   ---   --   ---xx   flac  0.4478  mikeboyd2009-07-29d01t14.flac
     4:21.02       46045148 B   ---   --   ---xx   flac  0.4762  mikeboyd2009-07-29d01t15.flac
     3:55.39       41545772 B   ---   --   ---xx   flac  0.4127  mikeboyd2009-07-29d01t16.flac
     4:27.16       47136476 B   ---   --   ---xx   flac  0.4898  mikeboyd2009-07-29d01t17.flac
     4:27.36       47183516 B   ---   --   ---xx   flac  0.4125  mikeboyd2009-07-29d01t18.flac
     6:30.44       68899532 B   ---   --   ---xx   flac  0.4663  mikeboyd2009-07-29d01t19.flac
     2:25.48       25690940 B   ---   --   ---xx   flac  0.3633  mikeboyd2009-07-29d01t20.flac
     4:46.73       50622140 B   ---   --   ---xx   flac  0.4969  mikeboyd2009-07-29d02t01.flac
     3:51.01       40750796 B   ---   --   ---xx   flac  0.4953  mikeboyd2009-07-29d02t02.flac
     3:50.49       40687292 B   ---   --   ---xx   flac  0.4530  mikeboyd2009-07-29d02t03.flac
     5:53.56       62400956 B   ---   --   ---xx   flac  0.4737  mikeboyd2009-07-29d02t04.flac
     4:04.39       43133372 B   ---   --   ---xx   flac  0.4788  mikeboyd2009-07-29d02t05.flac
     4:57.24       52447292 B   ---   --   ---xx   flac  0.4648  mikeboyd2009-07-29d02t06.flac
     4:46.48       50563340 B   ---   --   ---xx   flac  0.5520  mikeboyd2009-07-29d02t07.flac
     5:08.04       54340652 B   ---   --   ---xx   flac  0.4430  mikeboyd2009-07-29d02t08.flac
     3:35.49       38041292 B   ---   --   ---xx   flac  0.4537  mikeboyd2009-07-29d02t09.flac
     3:21.41       35552876 B   ---   --   ---xx   flac  0.3832  mikeboyd2009-07-29d02t10.flac
     3:57.72       41976188 B   ---   --   ---xx   flac  0.4422  mikeboyd2009-07-29d02t11.flac
     3:07.16       33024476 B   ---   --   ---xx   flac  0.5066  mikeboyd2009-07-29d02t12.flac
     7:56.04       83975852 B   ---   --   ---xx   flac  0.4833  mikeboyd2009-07-29d02t13.flac
     3:30.74       37218092 B   ---   --   ---xx   flac  0.4696  mikeboyd2009-07-29d02t14.flac
     7:00.16       74125676 B   ---   --   ---xx   flac  0.4568  mikeboyd2009-07-29d02t15.flac
   149:40.19     1584118228 B                            0.4574  (35 files)


 



More information about the bittorrent mailing list