[bittorrent] wsp1997-11-08.re20.wilker.88804.flac16 [wsp1997 project]

Automated Mailer noreply-bt.e at etree.org
Wed Jul 29 22:12:33 MDT 2009


Band:           Widespread Panic
Torrent Name:   wsp1997-11-08.re20.wilker.88804.flac16 [wsp1997 project]
Uploaded by:    mikepanic
DB Link:        
Details:        http://bt.etree.org/details.php?id=527118

Contact the seeder at http://db.etree.org/mikepanic

If the link to this show does not work, it was probably removed for
being non-trade-friendly.

Description / text file:
-------------------------
Widespread Panic
Millett Hall
Miami University (Miami of Ohio)
Oxford, OH.
11/8/97

Taped, Transfered, Tracked, & Seeded By: 
Michael Wilker  mwilker-at-comcast.net
Source: EV-RE20's~>SBM1~>D8 
Transfer:(datmaster)DA-20~> Audiophile24/96~>
 WaveLab5(fadeI/O)~> CDWave(track)~> FLAC6
*********************************************
THANKS TO WIDESPREAD PANIC FOR THIER SUPPORT
OF AUDIENCE RECORDING,SHARING, AND TRADING.
PLEASE DO NOT ENCODE THIS SHOW TO LOSSY 
AUDIO FORMATS. PLEASE SPREAD, BUT PLEASE 
INCLUDE SOURCE INFO. DO NOT SELL OR 
DISTRIBUTE FOR A PROFIT BY ANY MEANS.!!!!!!!
*********************************************
Set One/Disc One:
01. She Caught The Katy
02. Disco
03. Space Wrangler
04. Blackout Blues
05. Pickin' Up The Pieces
06. Walk On
07. Machine
08. Barstools
09. Radio Child

Set Two/Disc Two:
01. Ain't Life Grand
02. Flat Foot Flewzy
03. C. Brown
04. Ain't No Use
05. Nobody's Loss
06. Chilly Water
07. Drums
08. Pleas
09. Chilly Water
Encore:
10. End Of The Show
11. Tallboy
-move encores to disc 1 for burning to cdrs
SHNTOOL:
 length     expanded size   cdr  WAVE problems filename
     3:52.20       40971884    ---   --   -----   wsp1997-11-08d1t01.wav
     3:05.08       32652860    ---   --   -----   wsp1997-11-08d1t02.wav
     9:34.26      101314796    ---   --   -----   wsp1997-11-08d1t03.wav
     8:00.04       84681452    ---   --   -----   wsp1997-11-08d1t04.wav
     5:55.49       62737292    ---   --   -----   wsp1997-11-08d1t05.wav
     6:28.58       68579660    ---   --   -----   wsp1997-11-08d1t06.wav
     3:40.31       38880956    ---   --   -----   wsp1997-11-08d1t07.wav
    11:10.49      118303292    ---   --   -----   wsp1997-11-08d1t08.wav
     6:15.51       66269996    ---   --   -----   wsp1997-11-08d1t09.wav
     5:24.35       57235964    ---   --   -----   wsp1997-11-08d2t01.wav
     7:54.46       83721836    ---   --   -----   wsp1997-11-08d2t02.wav
     7:23.01       78147596    ---   --   -----   wsp1997-11-08d2t03.wav
    10:26.32      110501708    ---   --   -----   wsp1997-11-08d2t04.wav
     7:05.66       75125276    ---   --   -----   wsp1997-11-08d2t05.wav
     9:42.41      102761276    ---   --   -----   wsp1997-11-08d2t06.wav
    12:20.63      130684220    ---   --   -----   wsp1997-11-08d2t07.wav
     5:17.40       56012924    ---   --   -----   wsp1997-11-08d2t08.wav
     4:40.36       49476716    ---   --   -----   wsp1997-11-08d2t09.wav
     6:38.28       70273100    ---   --   -----   wsp1997-11-08d2t10.wav
     4:56.49       52329692    ---   --   -----   wsp1997-11-08d2t11.wav
   139:53.58     1480662496 B                     (totals for 20 files, 1.0000 overall compression ratio)

FINGERPRINT:
wsp1997-11-08d1t01.flac:92c5d4e04819c902bee1cf7f41b0576f
wsp1997-11-08d1t02.flac:71a8bcdbfb02349b9071eb4565d7b03a
wsp1997-11-08d1t03.flac:bfa7a9b52d0ff55f1a11437c86f591b2
wsp1997-11-08d1t04.flac:658ab3085a5c3caba06249aa33db1f12
wsp1997-11-08d1t05.flac:db1a6151bf4f8933f338f364ffdad299
wsp1997-11-08d1t06.flac:781213633d54b5bf3d070f34717a527d
wsp1997-11-08d1t07.flac:a38a37f347f54177886a64e80ed67df1
wsp1997-11-08d1t08.flac:35b4326aca2d4f32a1b3007fceece13c
wsp1997-11-08d1t09.flac:e4c06b4b1c446036a583a3dd7a907eb0
wsp1997-11-08d2t01.flac:627d1babfaef714442013f7dca513a0d
wsp1997-11-08d2t02.flac:a7bdd73496ee37cb323d49b41d86ca01
wsp1997-11-08d2t03.flac:e1a2e87ccb836c119dfa2f8d47a58666
wsp1997-11-08d2t04.flac:e7bf4b1a0db4a36342e55835a5cde520
wsp1997-11-08d2t05.flac:09b03fcec1a59454dce548d8d38c735a
wsp1997-11-08d2t06.flac:68eba5246960f85ee41e1b52258ec687
wsp1997-11-08d2t07.flac:b3718afa230eb9158a19cae46c8627d7
wsp1997-11-08d2t08.flac:7749ccfb2eb37a46f07f73ddd4c7fa29
wsp1997-11-08d2t09.flac:09a8c7677844fe3c202dc4817ee24eca
wsp1997-11-08d2t10.flac:5863019b327260d9dd39c0eff888f6c5
wsp1997-11-08d2t11.flac:2e1145762d7bbbecd793f883746d0be1
-->> Support artists that support tapers! <<--




More information about the bittorrent mailing list