[bittorrent] wsp1997-11-07.ccm4.gross.88574.flac16 [wsp1997 project]

Automated Mailer noreply-bt.e at etree.org
Wed Jul 29 22:09:23 MDT 2009


Band:           Widespread Panic
Torrent Name:   wsp1997-11-07.ccm4.gross.88574.flac16 [wsp1997 project]
Uploaded by:    mikepanic
DB Link:        
Details:        http://bt.etree.org/details.php?id=527116

Contact the seeder at http://db.etree.org/mikepanic

If the link to this show does not work, it was probably removed for
being non-trade-friendly.

Description / text file:
-------------------------
Widespread Panic
Palace Theater
Columbus, OH
November 07, 1997

Source: Schoeps ccm4  (Taped by Adam Gross, DATs courtesy of Haney Jones)
Transfer: Tascam DA-45HR > Audiophile 24/96 USB > Cool Edit Pro > CDWave > FLAC(level 6)

Resampled(48>44.1) and Fades Added in Cool Edit
Tracked in CDWave

Converted, Edited, and Seeded by D.P. Swint

Disc 1
Set I
01. Pilgrims >
02. Hope In A Hopeless World >
03. Chunk Of Coal 
04. You Got Yours 
05. Better Off 
06. Big Wooly Mammoth > 
07. Who Do You Belong To? 
08. Jack >
09. Love Tractor 

Disc 2
Set II
01. Let's Get Down To Business 
02. Pigeons >
03. Ride Me High > 
04. Aunt Avis > 
05. Airplane > 
06. I'm Not Alone 

Disc 3
Set II cont.
01. Use Me >
02. Drums > 
03. Hatfield 
04. Conrad

Encore:
05. Crowd
06. Red Beans 

Setlist compliments of Everyday Companion
www.everydaycompanion.com

********************************************************
FLAC Fingerprints

wsp1997-11-07d1t01.flac:bb481f0de57176d4336d459139a16b39
wsp1997-11-07d1t02.flac:d19fb19f9a057605fc1e526c58373a43
wsp1997-11-07d1t03.flac:5836911c492c807f61e158caa295d7da
wsp1997-11-07d1t04.flac:362455d0d82a6f066a785b44a4f71fb9
wsp1997-11-07d1t05.flac:bbb5b7f83df8e42eaf41ccb7438b17af
wsp1997-11-07d1t06.flac:01eb474cd9e336ed983cbe05d20b608c
wsp1997-11-07d1t07.flac:ab53d27e84596b7ec086d8f2722521bb
wsp1997-11-07d1t08.flac:c7e8d335ef45d31e5618e1f32778ce6d
wsp1997-11-07d1t09.flac:e04e398b1ca19d40e8f8f3a79b52140f
wsp1997-11-07d2t01.flac:b7c93786c1be76f3da7db9f8463783ad
wsp1997-11-07d2t02.flac:90a79d2e19d404c6ddbb4d4ce3d9fd6e
wsp1997-11-07d2t03.flac:eb3a9473d6815326a1d5895afacce48c
wsp1997-11-07d2t04.flac:fb9a3f032fc1aa67f17354a76a81ab34
wsp1997-11-07d2t05.flac:a979ad07ee427f9efe8c660220e88b67
wsp1997-11-07d2t06.flac:0e09462367e68a1e7f453b9d87b5fde8
wsp1997-11-07d3t01.flac:2547ecdf50d822722fbafd8d18cc7c84
wsp1997-11-07d3t02.flac:a5c8c74a60c71ab74a35cd658124c617
wsp1997-11-07d3t03.flac:cb2add9345378ad88f76c8283380c428
wsp1997-11-07d3t04.flac:6e3a49b2b2d05d93d00f6a17b3e27a14
wsp1997-11-07d3t05.flac:70db1596606c14473c07eac1205d71c8
wsp1997-11-07d3t06.flac:3477ddecb5df898fe316d0d9b226e585

********************************************************
SHNtool Output

    length     expanded size   cdr  WAVE problems filename
     8:27.29       89503052    ---   --   ---xx   wsp1997-11-07d1t01.flac
     5:00.50       53037644    ---   --   ---xx   wsp1997-11-07d1t02.flac
     4:38.56       49170956    ---   --   ---xx   wsp1997-11-07d1t03.flac
     6:47.36       71879516    ---   --   ---xx   wsp1997-11-07d1t04.flac
     5:32.21       58614236    ---   --   ---xx   wsp1997-11-07d1t05.flac
     6:50.48       72436940    ---   --   ---xx   wsp1997-11-07d1t06.flac
     5:53.60       62410364    ---   --   ---xx   wsp1997-11-07d1t07.flac
     6:38.46       70315436    ---   --   ---xx   wsp1997-11-07d1t08.flac
     6:17.41       66599276    ---   --   ---xx   wsp1997-11-07d1t09.flac
     7:15.43       76835180    ---   --   ---xx   wsp1997-11-07d2t01.flac
     8:25.18       89124380    ---   --   ---xx   wsp1997-11-07d2t02.flac
     9:55.69      105120332    ---   --   ---xx   wsp1997-11-07d2t03.flac
     6:16.64       66476972    ---   --   ---xx   wsp1997-11-07d2t04.flac
    12:35.70      133346684    ---   --   ---xx   wsp1997-11-07d2t05.flac
     6:26.11       68116316    ---   --   ---xx   wsp1997-11-07d2t06.flac
    10:34.61      111981116    ---   --   ---xx   wsp1997-11-07d3t01.flac
    15:46.03      166881500    ---   --   ---xx   wsp1997-11-07d3t02.flac
    11:51.09      125441612    ---   --   ---xx   wsp1997-11-07d3t03.flac
     9:16.29       98146652    ---   --   ---xx   wsp1997-11-07d3t04.flac
     2:20.26       24757196    ---   --   ---xx   wsp1997-11-07d3t05.flac
     6:04.19       64254332    ---   --   ---xx   wsp1997-11-07d3t06.flac
   162:55.59        1644.56 MB                    (totals for 21 files, 0.5806 overall compression ratio)




More information about the bittorrent mailing list