[bittorrent] wsp1997-11-06.re20.wilker.97457.flac16 [wsp1997 project]

Automated Mailer noreply-bt.e at etree.org
Wed Jul 29 22:07:49 MDT 2009


Band:           Widespread Panic
Torrent Name:   wsp1997-11-06.re20.wilker.97457.flac16 [wsp1997 project]
Uploaded by:    mikepanic
DB Link:        
Details:        http://bt.etree.org/details.php?id=527115

Contact the seeder at http://db.etree.org/mikepanic

If the link to this show does not work, it was probably removed for
being non-trade-friendly.

Description / text file:
-------------------------
Widespread Panic
Auditorium - Drama & Arts Theater
Indiana University 
Bloomington, IN.
11/06/1997

Recorded, Tracked, & Seeded By:
 Michael Wilker mwilker-at-comcast.net
Source: EV-RE20's> SBM1> D8
Transfer:(datmaster)DA-20> Audiophile24/96>
WaveLab5(fadesI/O)> CDWave(track)> TLH> FLAC6
************************************************
THANKS TO WIDESPREAD PANIC FOR THEIR SUPPORT
OF AUDIENCE RECORDING, SHARING, AND TRADING.
PLEASE DO NOT SHARE THIS RECORDING IN LOSSY 
AUDIO FORMATS. PLEASE SPREAD, BUT PLEASE 
INCLUDE SOURCE INFO. DO NOT SELL OR 
DISTRIBUTE FOR A PROFIT BY ANY MEANS.!!!!!!!
************************************************ 
 
SET ONE/ DISC ONE:
01. Walkin' 
02. Blight
03. Travelin' Light
04. Greta
05. The Last Straw
 -  Happy          -missing
 -  Sleepy Monkey  -missing
 -  Tie Your Shoes -missing
 -  Fishwater      -missing

SET TWO: 
06. Diner 
07. Porch Song 
08. The Take Out
09. 1 x 1

SET TWO(cont)/ DISC TWO:
01. Gradle
02. Rebirtha
03. Papa's Home 
04. Drums 
05. Papa's Home 
06. Proving Ground

ENCORE:
07. City of Dreams
ENCORE2: 
08. Let's Get The Show On The Road*

*'Let's Get The Show On The Road' JB solo on acoustic; 
-'Drums' appears on 'Light Fuse Get Away'

SHNTOOL:
 length     expanded size   cdr  WAVE problems filename
     4:46.39       50542172    ---   --   -----   wsp1997-11-06d1t01.wav
     7:25.36       78582716    ---   --   -----   wsp1997-11-06d1t02.wav
     6:19.04       66865052    ---   --   -----   wsp1997-11-06d1t03.wav
     8:34.41       90766076    ---   --   -----   wsp1997-11-06d1t04.wav
     7:05.31       75042956    ---   --   -----   wsp1997-11-06d1t05.wav
    16:31.08      174831260    ---   --   -----   wsp1997-11-06d1t06.wav
     9:55.48      105070940    ---   --   -----   wsp1997-11-06d1t07.wav
     2:22.67       25206428    ---   --   -----   wsp1997-11-06d1t08.wav
     7:20.59       77754812    ---   --   -----   wsp1997-11-06d1t09.wav
     4:29.24       47508092    ---   --   -----   wsp1997-11-06d2t01.wav
     8:05.50       85671644    ---   --   -----   wsp1997-11-06d2t02.wav
    10:01.40      106110524    ---   --   -----   wsp1997-11-06d2t03.wav
    15:05.68      159801980    ---   --   -----   wsp1997-11-06d2t04.wav
     1:35.63       16906220    ---   --   -----   wsp1997-11-06d2t05.wav
     7:24.36       78406316    ---   --   -----   wsp1997-11-06d2t06.wav
     7:15.67       76891628    ---   --   -----   wsp1997-11-06d2t07.wav
     5:01.25       53155244    ---   --   -----   wsp1997-11-06d2t08.wav
   129:21.31     1369114060 B                     (totals for 17 files, 1.0000 overall compression ratio)

FINGERPRINT:
wsp1997-11-06d1t01.flac:536ef8d6d055551eb559b46d4eb4fef9
wsp1997-11-06d1t02.flac:ebf32e1e1dbfd53e40a216d1ae736b9d
wsp1997-11-06d1t03.flac:06d67a4e500082443ff879c0abf402f4
wsp1997-11-06d1t04.flac:c44e1a24af035b77ccff09a1e7ce5197
wsp1997-11-06d1t05.flac:27b0c26163cb10d9af40fd9daed7c261
wsp1997-11-06d1t06.flac:849abdea5c9344f60aa9e4b399b9da12
wsp1997-11-06d1t07.flac:8e01e10c7590443b8a618c5d93082e17
wsp1997-11-06d1t08.flac:3277e1cd743a1a90c06bb241f787f92d
wsp1997-11-06d1t09.flac:fa1939f47320b6d89f0fbe868a5eb3fc
wsp1997-11-06d2t01.flac:e4cba152050ed0178fe5b839cbd07dc2
wsp1997-11-06d2t02.flac:432caf7196646348150fafdffab5e5a4
wsp1997-11-06d2t03.flac:31d92587f08f1fa610193064b0b2f8ac
wsp1997-11-06d2t04.flac:8573feee7cc873cf283283536126ba63
wsp1997-11-06d2t05.flac:68e256e1b9523522e9c917338d377898
wsp1997-11-06d2t06.flac:39b6153d1cd3b0a3bb13a12ba9c3e139
wsp1997-11-06d2t07.flac:ecee483b112665b522cffb7305a1047b
wsp1997-11-06d2t08.flac:b6d1bdc221975837ae4141bcaa3cf05f




More information about the bittorrent mailing list