[bittorrent] gd81-08-30.sbd.fishman.78602.sbefail.flac16

Automated Mailer noreply-bt.e at etree.org
Tue Jul 28 10:34:31 MDT 2009


Band:           Grateful Dead
Torrent Name:   gd81-08-30.sbd.fishman.78602.sbefail.flac16
Uploaded by:    WHARFRAT73
DB Link:        http://db.etree.org/shn/78602
Details:        http://bt.etree.org/details.php?id=527073

Contact the seeder at http://db.etree.org/WHARFRAT73

If the link to this show does not work, it was probably removed for
being non-trade-friendly.

Description / text file:
-------------------------
Grateful Dead - August 30, 1981
Compton Terrace Amphitheatre 
Tempe, AZ

-Pitch and Tempo adjusted by JR Fishman to 96.92% using audience recording 

Recording Info:
SBD -> Cassette Master -> Cassette -> Cassette -> Dat -> CD

Transfer Info:
CD -> EAC -> Samplitude v7.02 Professional -> FLAC
(3 Discs Audio / 2 Discs FLAC)

Originally transferred and edited by Charlie Miller
charliemiller87 at earthlink.net

Patch Info:
There are a few patches in the 1st Set (due to diginoise) with SBD>Cm>?>Cass>CD.
There is a split-second of noise in GDTRFB that I couldn't patch.
There are also patches in Roses*, Might As Well*, He's Gone, Drums, Good Lovin and
all of Don't Ease Me In from (FOB)Neumann KM84>Cass Master>Dat>Cool Edit Pro>CD.
(It's not as bad as it looks)

Notes:
-- Seamless transition between discs 2 and 3.
-- Thanks to Andy Lemieux and Joe Browning for their help with this project.

-Pitch and Tempo adjusted by JR Fishman to 96.92% using audience recording (etree id xxxxx)

Set 1:
d1t01 - Mississippi Half-Step Uptown Toodeloo -> *
d1t02 - Franklin's Tower -> *
d1t03 - New Minglewood Blues *
d1t04 - Tennessee Jed *
d1t05 - Mama Tried -> *
d1t06 - Mexicali Blues *
d1t07 - It Must Have Been The Roses ***
d1t08 - Beat It On Down The Line *
d1t09 - Cumberland Blues ->*
d1t10 - Looks Like Rain*
d1t11 - Might As Well ***

Set 2:
d2t01 - Samson And Delilah *
d2t02 - Ship Of Fools *
d2t03 - Estimated Prophet -> *
d2t04 - He's Gone -> ** 14:08 to end
d2t05 - Drums -> ** 00:00 to 2:48
d3t01 - Space -> *
d3t02 - The Other One -> *
d3t03 - Stella Blue ->
d3t04 - Goin' Down The Road Feeling Bad ->
d3t05 - Good Lovin' ** 00:00 to 7:43

Encore:
d3t06 - Don't Ease Me In

*** pitched partially 

    length     expanded size   cdr  WAVE problems filename
     8:31.02       90144940    -b-   --   ---xx   gd81-08-30d1t01.flac
     9:18.68       98591752    -b-   --   ---xx   gd81-08-30d1t02.flac
     9:08.06       96681244    -b-   --   ---xx   gd81-08-30d1t03.flac
     9:48.36      103808024    -b-   --   ---xx   gd81-08-30d1t04.flac
     2:38.36       27955448    -b-   --   ---xx   gd81-08-30d1t05.flac
     4:34.60       48474012    -b-   --   ---xx   gd81-08-30d1t06.flac
     6:48.07       71987444    -b-   --   ---xx   gd81-08-30d1t07.flac
     3:58.70       42147456    -b-   --   ---xx   gd81-08-30d1t08.flac
     5:34.03       58924804    -b-   --   ---xx   gd81-08-30d1t09.flac
     8:19.08       88042928    -b-   --   ---xx   gd81-08-30d1t10.flac
     4:30.41       47723532    -b-   --   ---xx   gd81-08-30d1t11.flac
    10:04.33      106623628    -b-   --   ---xx   gd81-08-30d2t01.flac
     8:05.35       85635416    -b-   --   ---xx   gd81-08-30d2t02.flac
    12:23.36      131150156    -b-   --   ---xx   gd81-08-30d2t03.flac
    14:48.39      156734672    -b-   --   ---xx   gd81-08-30d2t04.flac
     9:52.54      104556284    -b-   --   ---xx   gd81-08-30d2t05.flac
     4:51.60       51474284    -b-   --   ---xx   gd81-08-30d3t01.flac
     9:47.33      103623360    -b-   --   ---xx   gd81-08-30d3t02.flac
    10:13.43      108235476    -b-   --   ---xx   gd81-08-30d3t03.flac
     5:59.16       63365932    -b-   --   ---xx   gd81-08-30d3t04.flac
     8:48.22       93191360    -b-   --   ---xx   gd81-08-30d3t05.flac
     3:23.09       35830412    ---   --   ---xx   gd81-08-30d3t06.flac
   171:28.42     1814902564 B                     (totals for 22 files, 0.5624 overall compression ratio)



More information about the bittorrent mailing list