[bittorrent] Who Hit John Circus Bar Ann Arbor, Michigan 7/22/2009

Automated Mailer noreply-bt.e at etree.org
Sun Jul 26 15:41:08 MDT 2009


Band:           Other
Torrent Name:   Who Hit John Circus Bar Ann Arbor, Michigan 7/22/2009
Uploaded by:    zmanatl
DB Link:        
Details:        http://bt.etree.org/details.php?id=527024

Contact the seeder at http://db.etree.org/zmanatl

If the link to this show does not work, it was probably removed for
being non-trade-friendly.

Description / text file:
-------------------------
Who Hit John
Circus Bar
Ann Arbor, Michigan
7/22/2009

Source: Schoeps CCM4V'S(din)>Lunatec V2>Benchmark AD2K>
Sound Devices 722 (24/48) 
Location: FOB/DFC/KFC/ZFC/AARP 5' From Stage, 7' High
DSP: Sound Devices 722>Sound Forge 9.0>CD Wave>flac(16)
Recorded By: Z-Man
Seeded By: Z-Man
  
Disc I 1st Set

01 Amazing Grace >
02 Gonna Raise The Ruckus Tonight
03 I'm A Michigan Boy 
04 Jenny Blake
05 Last Dog Dies >
06 Jesse James
07 Long Walk Home
08 Old Home Place
09 Georgia Buck
10 Cluckled Old Hen
11 Muddy Water >
12 ?
13 Angie And The Hambone
14 Wagon Wheel

Disc II 2nd Set

01 Waltz ?
02 Conscription Man
03 ?
04 Ophelia
05 Instrumental ?
06 Raise The Moon
07 It's The End Of The World As We Know It
08 Possom Stomp
09 Never Let Your Woman Rule Your Life
10 Jam >
11 ?
12 Cooter Brown
13 Old Gray Road 

Flac fingerprint 

whohitjohn2009-07-22d01t01.flac:5d273462a65aa173850ab8d90fe5acaf
whohitjohn2009-07-22d01t02.flac:34f12f06762b8e09d79741ba92ef981b
whohitjohn2009-07-22d01t03.flac:1a4b7c03dc3a2c6c9dd5a1506525dcb2
whohitjohn2009-07-22d01t04.flac:0806b7525700b7d61fc51d1d8c8ba08b
whohitjohn2009-07-22d01t05.flac:7cddb9a9dd17a14668fdf33d9ab7b390
whohitjohn2009-07-22d01t06.flac:960d0eed52528ac828d73661ca4a3129
whohitjohn2009-07-22d01t07.flac:a9a2c5294140bef3ca0d157cde3792fa
whohitjohn2009-07-22d01t08.flac:19619c0940ffc32340f23c22396265cf
whohitjohn2009-07-22d01t09.flac:68280489e0675edcf2769e08a5e395ab
whohitjohn2009-07-22d01t10.flac:f4fc988e9d7395da0e69947d782882df
whohitjohn2009-07-22d01t11.flac:85fb6ccfa70f35fdb80a11db774ab87e
whohitjohn2009-07-22d01t12.flac:c4f92d08ab6c13cf299c8aedf3a91dfd
whohitjohn2009-07-22d01t13.flac:b877f166ec0324fbd9a5eac76a148005
whohitjohn2009-07-22d01t14.flac:d87b1d397f43869dac8de44196724b68
whohitjohn2009-07-22d02t01.flac:3ca47a420be034a9245c11b244ed83ea
whohitjohn2009-07-22d02t02.flac:72a37fe161a9deb2270ee1e1e886398b
whohitjohn2009-07-22d02t03.flac:a966f3c3e25c4b0ed4593d140dc89893
whohitjohn2009-07-22d02t04.flac:da06d46da12b47635ddbff1baab26db6
whohitjohn2009-07-22d02t05.flac:7130a016bfe2539c428a32a914cddaef
whohitjohn2009-07-22d02t06.flac:4e8518b808649551c90657be44d76483
whohitjohn2009-07-22d02t07.flac:a2ad822dadb41a982f36107aa56a94eb
whohitjohn2009-07-22d02t08.flac:d896361c001425239f8dadec34c0f9e9
whohitjohn2009-07-22d02t09.flac:1bde1e8eaca8310526ba2409ce39ea3a
whohitjohn2009-07-22d02t10.flac:2540ede9d629e6c2de89992013f2b8bd
whohitjohn2009-07-22d02t11.flac:f337076ebec332783f84ece944257451
whohitjohn2009-07-22d02t12.flac:f35d14d74786c44a97ac1912bad2b032
whohitjohn2009-07-22d02t13.flac:6cb7fbf2ed33c01f8fac66d55b4491b7

shntool 

    length     expanded size    cdr  WAVE problems  fmt   ratio  filename
     1:59.71       21158636 B   ---   --   ---xx   flac  0.5764  whohitjohn2009-07-22d01t01.flac
     3:16.58       34710860 B   ---   --   ---xx   flac  0.5339  whohitjohn2009-07-22d01t02.flac
     2:52.31       30413756 B   ---   --   ---xx   flac  0.5405  whohitjohn2009-07-22d01t03.flac
     2:24.69       25563932 B   ---   --   ---xx   flac  0.5066  whohitjohn2009-07-22d01t04.flac
     2:20.70       24860684 B   ---   --   ---xx   flac  0.5136  whohitjohn2009-07-22d01t05.flac
     4:05.24       43274492 B   ---   --   ---xx   flac  0.5246  whohitjohn2009-07-22d01t06.flac
     3:12.24       33925292 B   ---   --   ---xx   flac  0.5142  whohitjohn2009-07-22d01t07.flac
     3:39.30       38702204 B   ---   --   ---xx   flac  0.4911  whohitjohn2009-07-22d01t08.flac
     3:53.32       41176508 B   ---   --   ---xx   flac  0.5557  whohitjohn2009-07-22d01t09.flac
     3:19.63       35251820 B   ---   --   ---xx   flac  0.4972  whohitjohn2009-07-22d01t10.flac
     3:03.62       32427068 B   ---   --   ---xx   flac  0.5644  whohitjohn2009-07-22d01t11.flac
     3:41.36       39069116 B   ---   --   ---xx   flac  0.5702  whohitjohn2009-07-22d01t12.flac
     4:10.27       44163548 B   ---   --   ---xx   flac  0.5165  whohitjohn2009-07-22d01t13.flac
     5:16.59       55881212 B   ---   --   ---xx   flac  0.5391  whohitjohn2009-07-22d01t14.flac
     3:07.31       33059756 B   ---   --   ---xx   flac  0.5439  whohitjohn2009-07-22d02t01.flac
     3:02.29       32173052 B   ---   --   ---xx   flac  0.5256  whohitjohn2009-07-22d02t02.flac
     4:49.11       51005516 B   ---   --   ---xx   flac  0.5443  whohitjohn2009-07-22d02t03.flac
     4:30.03       47635100 B   ---   --   ---xx   flac  0.5324  whohitjohn2009-07-22d02t04.flac
     2:09.34       22835612 B   ---   --   ---xx   flac  0.5818  whohitjohn2009-07-22d02t05.flac
     7:19.66       77594876 B   ---   --   ---xx   flac  0.5711  whohitjohn2009-07-22d02t06.flac
     3:38.28       38521100 B   ---   --   ---xx   flac  0.5477  whohitjohn2009-07-22d02t07.flac
     2:51.48       30277340 B   ---   --   ---xx   flac  0.5220  whohitjohn2009-07-22d02t08.flac
     4:21.47       46150988 B   ---   --   ---xx   flac  0.5952  whohitjohn2009-07-22d02t09.flac
     0:59.42       10506428 B   ---   --   ---xx   flac  0.4936  whohitjohn2009-07-22d02t10.flac
     4:27.07       47115308 B   ---   --   ---xx   flac  0.5419  whohitjohn2009-07-22d02t11.flac
     3:55.38       41543420 B   ---   --   ---xx   flac  0.5467  whohitjohn2009-07-22d02t12.flac
     4:50.44       51259532 B   ---   --   ---xx   flac  0.5786  whohitjohn2009-07-22d02t13.flac
    97:20.34     1030257156 B                            0.5426  (27 files)






More information about the bittorrent mailing list