[bittorrent] Larry Pless Don and Metta Mitchell Amphitheatre Owosso, Michigan 7/25/2009

Automated Mailer noreply-bt.e at etree.org
Sun Jul 26 15:37:39 MDT 2009


Band:           Other
Torrent Name:   Larry Pless Don and Metta Mitchell Amphitheatre Owosso, Michigan 7/25/2009
Uploaded by:    zmanatl
DB Link:        
Details:        http://bt.etree.org/details.php?id=527023

Contact the seeder at http://db.etree.org/zmanatl

If the link to this show does not work, it was probably removed for
being non-trade-friendly.

Description / text file:
-------------------------
Larry Pless
Don And Metta Mitchell Amphitheatre
Owosso, Michigan
7/25/2009

Source: Schoeps CCM4V'S(din)>Lunatec V2>Benchmark AD2K>
Sound Devices 722 (24/48) 
Location: FOB/DFC/KFC/ZFC/AARP 30' From Stage, 6 1/2' High
DSP: Sound Devices 722>Sound Forge 9.0>CD Wave>flac(16)
Recorded By: Z-Man
Seeded By: Z-Man
  
Disc I 1st Set

01 Introduction
02 Baby, What You Tryin' To Say
03 ?
04 Paradise n Wheels
05 Touch Of Heart
06 You Make Me Smile
07 Bubble Wrap
08 ?

Flac fingerprint

larrypless2009-07-25d01t01.flac:d40868ca6207db0d446c6866cf798c18
larrypless2009-07-25d01t02.flac:45ff8bb63fc10a99da67402dcc256d9f
larrypless2009-07-25d01t03.flac:57f5d3283a95760252263cd883928e53
larrypless2009-07-25d01t04.flac:9131752140a867a785e0dc854982d5b0
larrypless2009-07-25d01t05.flac:7a6ec850cf089bef64ddfb29ee327b33
larrypless2009-07-25d01t06.flac:e602c3e0aa944318ca98dcb9a2786c4b
larrypless2009-07-25d01t07.flac:c16c05d2a208f1e335ec04841bb454df
larrypless2009-07-25d01t08.flac:c7cf06f95c4e1881754c2e291e350b9e

shntool 

    length     expanded size    cdr  WAVE problems  fmt   ratio  filename
     0:39.10        6903164 B   ---   --   ---xx   flac  0.3101  larrypless2009-07-25d01t01.flac
     2:47.15       29494124 B   ---   --   ---xx   flac  0.4444  larrypless2009-07-25d01t02.flac
     3:41.13       39015020 B   ---   --   ---xx   flac  0.4159  larrypless2009-07-25d01t03.flac
     3:47.73       40214540 B   ---   --   ---xx   flac  0.3890  larrypless2009-07-25d01t04.flac
     3:02.60       32245964 B   ---   --   ---xx   flac  0.4036  larrypless2009-07-25d01t05.flac
     2:42.55       28706204 B   ---   --   ---xx   flac  0.4027  larrypless2009-07-25d01t06.flac
     4:39.38       49305020 B   ---   --   ---xx   flac  0.3770  larrypless2009-07-25d01t07.flac
     4:12.71       44619836 B   ---   --   ---xx   flac  0.4108  larrypless2009-07-25d01t08.flac
    25:33.35      270503872 B                            0.4015  (8 files)







More information about the bittorrent mailing list