[bittorrent] Greensky Bluegrass Don and Metta Mitchell Amphitheatre Owosso, Michigan 7/25/2009

Automated Mailer noreply-bt.e at etree.org
Sun Jul 26 15:27:46 MDT 2009


Band:           Other
Torrent Name:   Greensky Bluegrass Don and Metta Mitchell Amphitheatre Owosso, Michigan 7/25/2009
Uploaded by:    zmanatl
DB Link:        
Details:        http://bt.etree.org/details.php?id=527022

Contact the seeder at http://db.etree.org/zmanatl

If the link to this show does not work, it was probably removed for
being non-trade-friendly.

Description / text file:
-------------------------
Greensky Bluegrass
Don And Metta Mitchell Amphitheatre
Owosso, Michigan
7/25/2009

Source: Schoeps CCM4V'S(din)>Lunatec V2>Benchmark AD2K>
Sound Devices 722 (24/48) 
Location: FOB/DFC/KFC/ZFC/AARP 30' From Stage, 6 1/2' High
DSP: Sound Devices 722>Sound Forge 9.0>CD Wave>flac(16)
Recorded By: Z-Man
Seeded By: Z-Man
  
Disc I 1st Set

01 Introduction/You Might Be Owosso 
02 Against The Days
03 Runnin'The Briars
04 Radio Blues
05 Nine Days
06 200 Miles From Montana
07 Stop That Train, I'm Leavin' >
08 Rueben's Train Jam >
09 Stop That Train, I'm Leavin'
10 *Train Song
11 Can't Make Time
12 Freeborn Man >
13 Jessica/Deliverence Jam >
14 Freeborn Man

Disc II 2nd Set

01 Introduction/Tuning
02 Walkin' The Dog
03 Grow Bananas
04 Can't Stop Now >
05 Jam >
06 Bottle Dry >
07 White Freightliner Blues >
08 Tall Buildings >
09 Ground Hog >
10 The Wheel Hoss
Encore:
11 Call em' Back/Banter - Promotions
12 #Tied Down
13 Outro

* First Time Played
# Slow 1st Verse

Flac fingerprint 

gsbg2009-07-25d01t01.flac:87476d6adee66308ca37cd5a8e6fb6be
gsbg2009-07-25d01t02.flac:071d1d882d15431d234e85b666c3f93d
gsbg2009-07-25d01t03.flac:66910a05cb50b2ae3d439675548b2490
gsbg2009-07-25d01t04.flac:24f9fc1c80ffe1186c4b40d95ea83ee3
gsbg2009-07-25d01t05.flac:50d5de32413bdd1d7efa4f8afd4ab1bb
gsbg2009-07-25d01t06.flac:ec5ffb759958e0fac316e28534da475c
gsbg2009-07-25d01t07.flac:4931f3b64f8f34adeab9f404f91a038a
gsbg2009-07-25d01t08.flac:70a667385979d69e2f68c22378bbf299
gsbg2009-07-25d01t09.flac:e9ecea0882b0a1e77c51095e031c3733
gsbg2009-07-25d01t10.flac:10fc471fbcd1e2ae723203c7b28b540d
gsbg2009-07-25d01t11.flac:a69b3f6a25243e0746b40b554d93feb6
gsbg2009-07-25d01t12.flac:ca2bd923752c3fe01892c2519355a043
gsbg2009-07-25d01t13.flac:b314590ad83e37fbf79744c3a1bf38ae
gsbg2009-07-25d01t14.flac:0503390554cd3f9f24c244cd30b05030
gsbg2009-07-25d02t01.flac:7ce0129f59de85ee2ede393dd34a86ad
gsbg2009-07-25d02t02.flac:9b1facb8a10c18bb7565d4e9c6bfb146
gsbg2009-07-25d02t03.flac:53831422694ade3ce0c253c006935da8
gsbg2009-07-25d02t04.flac:2704b38488970340a6541ab5369aa491
gsbg2009-07-25d02t05.flac:c60387ec9bfec107e7db915c878eef64
gsbg2009-07-25d02t06.flac:48e45d99a8aa47693ffea58f832bbe6a
gsbg2009-07-25d02t07.flac:b94d7c3c8ddd567b53f121a33f3291c3
gsbg2009-07-25d02t08.flac:2ef15f7205f7f1fda0881d7a350b0f49
gsbg2009-07-25d02t09.flac:c04ced2fb338b6e79b362f54286f8607
gsbg2009-07-25d02t10.flac:f9262c603bacbba86a45f7023ec2be10
gsbg2009-07-25d02t11.flac:63839ff846cfeadcb827ff78a25751c9
gsbg2009-07-25d02t12.flac:ce37e3dd77f89df90e187ac6d6e1973e
gsbg2009-07-25d02t13.flac:a7dc49b5a1d66bf40507d3bc7be7a9ec

shntool 3.0.4
Copyright (C) 2000-2007 Jason Jordan <shnutils at freeshell.org>

    length     expanded size    cdr  WAVE problems  fmt   ratio  filename
     3:09.43       33440780 B   ---   --   ---xx   flac  0.3168  gsbg2009-07-25d01t01.flac
     3:56.68       41790380 B   ---   --   ---xx   flac  0.3690  gsbg2009-07-25d01t02.flac
     4:11.21       44325836 B   ---   --   ---xx   flac  0.4014  gsbg2009-07-25d01t03.flac
     4:31.03       47811500 B   ---   --   ---xx   flac  0.3772  gsbg2009-07-25d01t04.flac
     6:03.46       64141436 B   ---   --   ---xx   flac  0.3361  gsbg2009-07-25d01t05.flac
     5:41.36       60237116 B   ---   --   ---xx   flac  0.3737  gsbg2009-07-25d01t06.flac
     4:23.51       46513196 B   ---   --   ---xx   flac  0.4051  gsbg2009-07-25d01t07.flac
     1:19.02       13940348 B   ---   --   ---xx   flac  0.3977  gsbg2009-07-25d01t08.flac
     2:13.68       23621180 B   ---   --   ---xx   flac  0.3362  gsbg2009-07-25d01t09.flac
     4:30.20       47675084 B   ---   --   ---xx   flac  0.3894  gsbg2009-07-25d01t10.flac
     5:04.29       53693852 B   ---   --   ---xx   flac  0.3847  gsbg2009-07-25d01t11.flac
     8:21.35       88458764 B   ---   --   ---xx   flac  0.3680  gsbg2009-07-25d01t12.flac
     2:28.42       26206028 B   ---   --   ---xx   flac  0.3678  gsbg2009-07-25d01t13.flac
     1:53.46       20041436 B   ---   --   ---xx   flac  0.4060  gsbg2009-07-25d01t14.flac
     2:08.06       22593356 B   ---   --   ---xx   flac  0.2674  gsbg2009-07-25d02t01.flac
     4:01.01       42514796 B   ---   --   ---xx   flac  0.4029  gsbg2009-07-25d02t02.flac
     4:18.52       45633548 B   ---   --   ---xx   flac  0.3775  gsbg2009-07-25d02t03.flac
     4:55.59       52176812 B   ---   --   ---xx   flac  0.4339  gsbg2009-07-25d02t04.flac
     2:08.25       22638044 B   ---   --   ---xx   flac  0.3147  gsbg2009-07-25d02t05.flac
     5:53.62       62415068 B   ---   --   ---xx   flac  0.3466  gsbg2009-07-25d02t06.flac
     3:46.15       39901724 B   ---   --   ---xx   flac  0.4392  gsbg2009-07-25d02t07.flac
     3:10.08       33534860 B   ---   --   ---xx   flac  0.3506  gsbg2009-07-25d02t08.flac
     5:06.26       54039596 B   ---   --   ---xx   flac  0.4077  gsbg2009-07-25d02t09.flac
     3:46.48       39979340 B   ---   --   ---xx   flac  0.4492  gsbg2009-07-25d02t10.flac
     1:36.55       17063804 B   ---   --   ---xx   flac  0.3463  gsbg2009-07-25d02t11.flac
     4:43.52       50043548 B   ---   --   ---xx   flac  0.4251  gsbg2009-07-25d02t12.flac
     0:54.51        9645596 B   ---   --   ---xx   flac  0.4244  gsbg2009-07-25d02t13.flac
   104:18.70     1104077028 B                            0.3805  (27 files)






More information about the bittorrent mailing list