[bittorrent] gd94-12-16.set2.dmtx.hansokolow.100297.flac16

Automated Mailer noreply-bt.e at etree.org
Sun Jul 26 13:47:05 MDT 2009


Band:           Grateful Dead
Torrent Name:   gd94-12-16.set2.dmtx.hansokolow.100297.flac16
Uploaded by:    hseamons
DB Link:        http://db.etree.org/shn/100297
Details:        http://bt.etree.org/details.php?id=527017

Contact the seeder at http://db.etree.org/hseamons

If the link to this show does not work, it was probably removed for
being non-trade-friendly.

Description / text file:
-------------------------
Grateful Dead
Friday, December 16th, 1994
Los Angeles Sports Arena
Los Angeles, CA


       cd1  -  set 2 (matrix)
1) (crowd/tuning)
2)  Eyes Of The World
3)  Samba In The Rain
4)  Estimated Prophet->
5)  He's Gone->
6)  Drums->

       cd2
1)  Space->
2)  The Other One->
3)  Wharf Rat->
4)  Good Lovin'
5) (crowd/tuning)
6)    e:  Lucy In The Sky With Diamonds

- Branford Marsalis plays for the whole show except the encore.
- Bobby plays acoustic guitar on Eternity

-------------------------------

This is a matrix, done by hansokolow in ProTools, of the following digital sources:

SBD: shnid=34551

Set 2 only!

Source: DSBD > DAT > [?] > CDR > EAC > CEPro > CDWAV > FLAC (level 8)

Thanks to Andy Lemieux for the disks
EAC etc. by Matt Vernon May 4, 2006

-------------------------------

AUD: shnid=10543

Source:  AUD(Nak 300 Shotguns)>Aiwa DAT>CDR>WAV>SHNv3

Comments:  Above average audience recording with minimal audience intrusiveness and with Branford Marsalis for the entire show.  Thanks to Henry Wankleswurth and the Society for the Chronicali Out of Phayze for the seed.  DAE(EAC0.9 beta 4) > tracking(cdwav) > SHN (shorten 3.4) > FTP via neo_levo/candyman FTP.  TMNSP - 07.02.

-------------------------------

hansokolow's notes:

I saw this whole run of shows, and they were all good, but this one with Branford just totally blew us away.  It was definitely the last truly great Dead show I attended.  In fact the only ones I attended after this were the final two shows ever, in Chicago.  In any case, this show is definitely underrated, imho, as the Branford shows go.  Eyes is lovely, but the real meat is the jam from Estimated into He's Gone.  That section just tore all of our faces off.  Enjoy!

This is a matrix of set 2, as there is no SBD of set 1 available. 

The SBD starts just after a minute or so of tuning, leading up to Eyes.

There is a split-second gap in the DAUD in Eyes at 13:29.

There's crowd noise missing on the DSBD between Samba and Estimated.

Both sources have some of the crowd noise missing from between Good Lovin' and the encore, so I added fades.

-Tano (hansokolow at gmail.com)
completed: 06/24/2009



    length     expanded size    cdr  WAVE problems  fmt   ratio  filename
     1:09.23       12225740 B   ---   --   ---xx  gd94-12-16d1t01.flac
    20:08.19      213135932 B   ---   --   ---xx  gd94-12-16d1t02.flac
     9:45.49      103309292 B   ---   --   ---xx  gd94-12-16d1t03.flac
    18:12.27      192692348 B   ---   --   ---xx  gd94-12-16d1t04.flac
    15:23.46      162925436 B   ---   --   ---xx  gd94-12-16d1t05.flac
    10:54.37      115452668 B   ---   --   ---xx  gd94-12-16d1t06.flac
     9:45.35      103276364 B   ---   --   ---xx  gd94-12-16d2t01.flac
     8:08.44       86186732 B   ---   --   ---xx  gd94-12-16d2t02.flac
    10:13.55      108262604 B   ---   --   ---xx  gd94-12-16d2t03.flac
     7:38.00       80791244 B   ---   --   ---xx  gd94-12-16d2t04.flac
     1:11.14       12557372 B   ---   --   ---xx  gd94-12-16d2t05.flac
     4:22.48       46329740 B   ---   --   ---xx  gd94-12-16d2t06.flac
   116:53.22     1237145472 B                            0.5136  (12 files)



More information about the bittorrent mailing list