[bittorrent] gd73-05-13.s3.sbd.fix.smith.miller.100302.flac16

Automated Mailer noreply-bt.e at etree.org
Sun Jul 26 08:42:18 MDT 2009


Band:           Grateful Dead
Torrent Name:   gd73-05-13.s3.sbd.fix.smith.miller.100302.flac16
Uploaded by:    WHARFRAT73
DB Link:        http://db.etree.org/shn/100302
Details:        http://bt.etree.org/details.php?id=527007

Contact the seeder at http://db.etree.org/WHARFRAT73

If the link to this show does not work, it was probably removed for
being non-trade-friendly.

Description / text file:
-------------------------
Grateful Dead - May 13, 1973
Iowa State Fairgrounds - Des Moines, IA

Recording Info:
SBD -> Master Reel -> Dat -> CD

Transfer Info:
CD -> Adobe Audition v1.5 -> Samplitude Professional v10.21 -> FLAC
(1 Disc Audio / 1 Disc FLAC)

All Transfers and Mastering By Charlie Miller
charliemiller87 at earthlink.net
July 24, 2009

Notes:
-- Thanks to Matt Smith for the disc
-- More from this source to follow when I find my Dat
-- I fixed the pitch and worked on the levels a bit
-- Thanks to Joe B. Jones for his help with the pitch correction

Set 3:
d4t01 - He's Gone ->
d4t02 - Truckin' ->
d4t03 - The Other One ->
d4t04 - Eyes Of The World ->
d4t05 - China Doll


SHNTOOL OUTPUT:
    length     expanded size   cdr  WAVE problems filename
    14:15.51      150941996    ---   --   -----   gd73-05-13d4t01.wav
    13:14.17      140101628    ---   --   -----   gd73-05-13d4t02.wav
    19:17.22      204146588    ---   --   -----   gd73-05-13d4t03.wav
    16:08.04      170764652    ---   --   -----   gd73-05-13d4t04.wav
     5:36.44       59373932    ---   --   -----   gd73-05-13d4t05.wav
    68:31.63      725328796 B                     (totals for 5 files)




More information about the bittorrent mailing list