[bittorrent] Greensky Bluegrass Telluride Bluegrass Festival Telluride, Colorado 6/20/2009

Automated Mailer noreply-bt.e at etree.org
Sat Jul 25 02:17:24 MDT 2009


Band:           Other
Torrent Name:   Greensky Bluegrass Telluride Bluegrass Festival Telluride, Colorado 6/20/2009
Uploaded by:    zmanatl
DB Link:        
Details:        http://bt.etree.org/details.php?id=526980

Contact the seeder at http://db.etree.org/zmanatl

If the link to this show does not work, it was probably removed for
being non-trade-friendly.

Description / text file:
-------------------------
Greensky Bluegrass
Telluride Bluegrass Festival
Mainstage
Telluride, Colorado
7/24/2009

Source: Neumann Split Omnis>Lunatec V3>Sound Devices 722 (24/96) 
Location: 
DSP: Sound Devices 722>Sound Forge 9.0>CD Wave>flac(16)
Recorded By: David "Cousin Eddie" Dyche
Seeded By: Z-Man
  
Disc I 

01 Introduction 
02 Against The Days
03 Just To Lie >
04 Train Junkie 
05 Banter
06 Can't Make Time
07 Radio Blues
08 Nine Days
09 200 Miles From Montana
10 Tied Down
11 Reverend
12 Broke Mountain Breakdown >
13 Little Wing 
Encore:
14 Thanks/Band Introductions
15 Old Barnes

Flac fingerprint 

gsbg2009-06-20d01t01.flac:bb5f29da0102f9f7d6239ae26fc1eea6
gsbg2009-06-20d01t02.flac:8935b30b2f528161508d618ae924e636
gsbg2009-06-20d01t03.flac:7030511c8918a09f1ce060e9b78500a9
gsbg2009-06-20d01t04.flac:c868f109686614bf03dc7d94ac77c308
gsbg2009-06-20d01t05.flac:187b44a2f1f6453cc605aff0bd8c9d7d
gsbg2009-06-20d01t06.flac:a1f576c96f481b480abf821df551f575
gsbg2009-06-20d01t07.flac:abecd5d9c6eec7bc2192e18aa00f4156
gsbg2009-06-20d01t08.flac:e9cdc7c1033d32d8fb07342743c539f9
gsbg2009-06-20d01t09.flac:05dfe804d7498ace8c69834a91046a0c
gsbg2009-06-20d01t10.flac:41115d8321980ba293016360a7c37f2f
gsbg2009-06-20d01t11.flac:186ed7cd0f9bbf443554bc9e88baf402
gsbg2009-06-20d01t12.flac:67fe25f0f12d867f50216687be1aa577
gsbg2009-06-20d01t13.flac:9d11026b461c338ea621d70387c5e700
gsbg2009-06-20d01t14.flac:897aadbfda62a5e70f1ff3174ef10a65
gsbg2009-06-20d01t15.flac:4e2ee5935198c0cee49f30bffbf530d5

shntool 

    length     expanded size    cdr  WAVE problems  fmt   ratio  filename
     0:36.44        6453932 B   ---   --   ---xx   flac  0.4055  gsbg2009-06-20d01t01.flac
     3:21.29       35524652 B   ---   --   ---xx   flac  0.4750  gsbg2009-06-20d01t02.flac
     3:37.07       38295308 B   ---   --   ---xx   flac  0.4853  gsbg2009-06-20d01t03.flac
     7:20.73       77787740 B   ---   --   ---xx   flac  0.4863  gsbg2009-06-20d01t04.flac
     1:05.45       11571884 B   ---   --   ---xx   flac  0.4035  gsbg2009-06-20d01t05.flac
     4:55.65       52190924 B   ---   --   ---xx   flac  0.4618  gsbg2009-06-20d01t06.flac
     4:14.66       44960876 B   ---   --   ---xx   flac  0.4714  gsbg2009-06-20d01t07.flac
     5:27.38       57772220 B   ---   --   ---xx   flac  0.4098  gsbg2009-06-20d01t08.flac
     5:32.36       58649516 B   ---   --   ---xx   flac  0.4602  gsbg2009-06-20d01t09.flac
     4:33.37       48244268 B   ---   --   ---xx   flac  0.4737  gsbg2009-06-20d01t10.flac
     6:17.06       66516956 B   ---   --   ---xx   flac  0.4584  gsbg2009-06-20d01t11.flac
     7:35.31       80334956 B   ---   --   ---xx   flac  0.4716  gsbg2009-06-20d01t12.flac
     3:28.74       36865292 B   ---   --   ---xx   flac  0.4906  gsbg2009-06-20d01t13.flac
     0:44.33        7839260 B   ---   --   ---xx   flac  0.4160  gsbg2009-06-20d01t14.flac
     4:28.20       47322284 B   ---   --   ---xx   flac  0.5032  gsbg2009-06-20d01t15.flac
    63:20.04      670330068 B                            0.4668  (15 files)







More information about the bittorrent mailing list