[bittorrent] Greensky Bluegrass Arcadia Creek Park Kalamazoo, Michigan 7/24/2009

Automated Mailer noreply-bt.e at etree.org
Sat Jul 25 01:19:07 MDT 2009


Band:           Other
Torrent Name:   Greensky Bluegrass Arcadia Creek Park Kalamazoo, Michigan 7/24/2009
Uploaded by:    zmanatl
DB Link:        
Details:        http://bt.etree.org/details.php?id=526978

Contact the seeder at http://db.etree.org/zmanatl

If the link to this show does not work, it was probably removed for
being non-trade-friendly.

Description / text file:
-------------------------
Greensky Bluegrass
Taste Of Kalamazoo
Arcadia Creek Park
Kalamazoo, Michigan
7/24/2009

Source: Schoeps CCM4V'S(din)>Lunatec V2>Benchmark AD2K>
Sound Devices 722 (24/48) 
Location: FOB/DFC/KFC/ZFC/AARP 30' From Stage, 7' High
DSP: Sound Devices 722>Sound Forge 9.0>CD Wave>flac(16)
Recorded By: Z-Man
Seeded By: Z-Man
  
Disc I 

01 Introduction By Paul Toth
02 Tied Down >
03 I'm Still Here
04 Gold Rush
05 Banter
06 All Four
07 Banter
08 Just To Lie >
09 Jam >
10 Train Junkie

Disc II 

01 Banter
02 Jam >
03 Indian Trail >
04 *King Of The Hill >
05 What's Left Of The Night
Encore:
06 Bring Em' Back By Paul Toth
07 Banter
08 China-Cat Sunflower >
09 I Know You Rider 
10 Outro By Paul Toth 

* Norwegian Wood Tease by Anders

Flac fingerprint 

gsbg2009-07-24d01t01.flac:16007da17b838a3cade519f4b68ffd84
gsbg2009-07-24d01t02.flac:b6b65ced04f48c035cb20ff66d76718f
gsbg2009-07-24d01t03.flac:fe4ff66f1795e8dc87196c6fa26d4990
gsbg2009-07-24d01t04.flac:a4e47864a01c76fff253c9e1783b0452
gsbg2009-07-24d01t05.flac:1e8e35ebc384008adf7aed613f44140a
gsbg2009-07-24d01t06.flac:be4d98e0510d09a1db3c88866b75b1ee
gsbg2009-07-24d01t07.flac:e6225a23dda6a7a22641864db6ae2c87
gsbg2009-07-24d01t08.flac:c8d681161fb6ba83409769d24157920e
gsbg2009-07-24d01t09.flac:acbccc76500c64adc2998a628c3d9a70
gsbg2009-07-24d01t10.flac:8d65b861dab2486314eabb50e51a7136
gsbg2009-07-24d02t01.flac:3a69c2e5d4c62d910103ca010e63841b
gsbg2009-07-24d02t02.flac:1c7787598162871108d0d087165f08d4
gsbg2009-07-24d02t03.flac:e6a76ebf42087cfa36dead3a0871ad71
gsbg2009-07-24d02t04.flac:f82bc1b5d55ac7b2248d87a986b2f9ad
gsbg2009-07-24d02t05.flac:6146bc76fbc54d988d84756d1eb536e6
gsbg2009-07-24d02t06.flac:df63e3db728db3ada31df0507e432b14
gsbg2009-07-24d02t07.flac:32f41a05b9ab739792e9b93681d52c67
gsbg2009-07-24d02t08.flac:57667dc0bbaca80ce884b808510d781f
gsbg2009-07-24d02t09.flac:2b5080c30b70d04023cb7ea9add28008
gsbg2009-07-24d02t10.flac:8f366f8bbe347f2c9fdcc6dbddaabb1e

shntool 

    length     expanded size    cdr  WAVE problems  fmt   ratio  filename
     0:37.47        6637388 B   ---   --   ---xx   flac  0.3560  gsbg2009-07-24d01t01.flac
     4:09.22       43975388 B   ---   --   ---xx   flac  0.4908  gsbg2009-07-24d01t02.flac
     4:25.54       46873052 B   ---   --   ---xx   flac  0.4484  gsbg2009-07-24d01t03.flac
     4:56.68       52374380 B   ---   --   ---xx   flac  0.5072  gsbg2009-07-24d01t04.flac
     1:36.10       16957964 B   ---   --   ---xx   flac  0.3986  gsbg2009-07-24d01t05.flac
    12:56.31      136959356 B   ---   --   ---xx   flac  0.4747  gsbg2009-07-24d01t06.flac
     1:58.52       20937548 B   ---   --   ---xx   flac  0.4092  gsbg2009-07-24d01t07.flac
     3:01.13       31959020 B   ---   --   ---xx   flac  0.4731  gsbg2009-07-24d01t08.flac
     2:02.46       21629036 B   ---   --   ---xx   flac  0.4010  gsbg2009-07-24d01t09.flac
    10:25.70      110414684 B   ---   --   ---xx   flac  0.4797  gsbg2009-07-24d01t10.flac
     1:20.10       14135564 B   ---   --   ---xx   flac  0.3816  gsbg2009-07-24d02t01.flac
     2:10.60       23073164 B   ---   --   ---xx   flac  0.3942  gsbg2009-07-24d02t02.flac
     5:07.57       54288908 B   ---   --   ---xx   flac  0.4374  gsbg2009-07-24d02t03.flac
    13:52.08      146783660 B   ---   --   ---xx   flac  0.4563  gsbg2009-07-24d02t04.flac
     8:36.51       91142396 B   ---   --   ---xx   flac  0.4974  gsbg2009-07-24d02t05.flac
     0:44.74        7935692 B   ---   --   ---xx   flac  0.4483  gsbg2009-07-24d02t06.flac
     0:42.60        7549964 B   ---   --   ---xx   flac  0.3719  gsbg2009-07-24d02t07.flac
     5:05.50       53919644 B   ---   --   ---xx   flac  0.4696  gsbg2009-07-24d02t08.flac
     5:54.63       62593820 B   ---   --   ---xx   flac  0.4964  gsbg2009-07-24d02t09.flac
     1:10.31       12420956 B   ---   --   ---xx   flac  0.4474  gsbg2009-07-24d02t10.flac
    90:56.52      962561584 B                            0.4649  (20 files)

 



 



More information about the bittorrent mailing list