[bittorrent] Ratdog 2009-07-18 Masquerade, Atlanta AKG 391

Automated Mailer noreply-bt.e at etree.org
Fri Jul 24 14:32:45 MDT 2009


Band:           Ratdog
Torrent Name:   Ratdog 2009-07-18 Masquerade, Atlanta AKG 391
Uploaded by:    scarletfire1111
DB Link:        
Details:        http://bt.etree.org/details.php?id=526969

Contact the seeder at http://db.etree.org/scarletfire1111

If the link to this show does not work, it was probably removed for
being non-trade-friendly.

Description / text file:
-------------------------
Ratdog
The Masquerade Music Park, Outside
Atlanta, Georgia
7/18/2009

Source: AKG 391 (DIN) > Edirol UA-5 BMP2+ mod > optical > I-River H120
Location: FOB/DFC/54' From Stage, 9' High
DSP: Adobe Audition 2.0 (gain, fades) > CDWave (tracking) >flac(16)
Recorded By: Michael Hughey
Seeded By: Michael Hughey


Set 1

Disc 1
01 Jam >
02 Shakedown Street >
03 Maggie's FArm >
04 They Love Each Other
05 Easy To Slip >
06 Bird Song >
07 Lazy River Road


Set 2

Disc 2
01 *Me and My Uncle >	(1)
02 *Corinna >		(1)
03 *He's Gone >		(1)
04 The Other One >	(2,3)
05 Jam>		(2,3)


Disc 3
01 Sugaree >		(2)
02 Bird Song >		(2)
03 One More Saturday Night	(2,3)


(1) Acoustic
(2) With Brian Lopes On Saxaphone
(3) With Al Schnier On Guitar


A Team Dirty South Recording



ffp
rd2009-07-18.akg391.hughey.d1t01.flac:57c2bff8e3b66b160a00fa18bfca3c2c
rd2009-07-18.akg391.hughey.d1t02.flac:8a758b40d4adb27f1768311ccd71f530
rd2009-07-18.akg391.hughey.d1t03.flac:21e4afd1b51ab6554d29095089e510f2
rd2009-07-18.akg391.hughey.d1t04.flac:c727dbb9d98a3bcd8f310f28a420bd1a
rd2009-07-18.akg391.hughey.d1t05.flac:1839ee48537ffc83d27ddc5bd69b63db
rd2009-07-18.akg391.hughey.d1t06.flac:ceb58f4dbc6914189b014ed3f0d20c65
rd2009-07-18.akg391.hughey.d1t07.flac:dcd6598ad973e514dab707facfaaf7ff
rd2009-07-18.akg391.hughey.d2t01.flac:cd63243455888a3751722a6d13bd150f
rd2009-07-18.akg391.hughey.d2t02.flac:c54081a9486639e83eebb2a20e0023e3
rd2009-07-18.akg391.hughey.d2t03.flac:2416cb9686f5686316b3972b77bca432
rd2009-07-18.akg391.hughey.d2t04.flac:78e1865972434f5f58974c94766bd63c
rd2009-07-18.akg391.hughey.d2t05.flac:1d6030a26fc8db38e248cb492563c124
rd2009-07-18.akg391.hughey.d3t01.flac:4572aebf603feed540a90bb07a6f2508
rd2009-07-18.akg391.hughey.d3t02.flac:f9d0aefab4ffd8f2f1bb0a2f8fa9b940
rd2009-07-18.akg391.hughey.d3t03.flac:bac49bfcf0fa701a879dd176c731ee30




shntool
    length     expanded size   cdr  WAVE problems filename
     4:46.40       50544524    ---   --   ---xx   rd2009-07-18.akg391.hughey.d1t01.flac
    12:56.15      136921724    ---   --   ---xx   rd2009-07-18.akg391.hughey.d1t02.flac
     8:34.14       90702572    ---   --   ---xx   rd2009-07-18.akg391.hughey.d1t03.flac
    11:58.49      126770492    ---   --   ---xx   rd2009-07-18.akg391.hughey.d1t04.flac
     8:04.72       85546988    ---   --   ---xx   rd2009-07-18.akg391.hughey.d1t05.flac
    18:36.63      197010620    ---   --   ---xx   rd2009-07-18.akg391.hughey.d1t06.flac
    10:05.45      106827884    ---   --   ---xx   rd2009-07-18.akg391.hughey.d1t07.flac
     4:55.12       52066268    ---   --   ---xx   rd2009-07-18.akg391.hughey.d2t01.flac
    14:04.26      148942796    ---   --   ---xx   rd2009-07-18.akg391.hughey.d2t02.flac
    13:22.51      141592796    ---   --   ---xx   rd2009-07-18.akg391.hughey.d2t03.flac
    15:59.11      169193516    ---   --   ---xx   rd2009-07-18.akg391.hughey.d2t04.flac
     4:43.51       50041196    ---   --   ---xx   rd2009-07-18.akg391.hughey.d2t05.flac
    12:23.00      131065244    ---   --   ---xx   rd2009-07-18.akg391.hughey.d3t01.flac
    10:40.65      113048924    ---   --   ---xx   rd2009-07-18.akg391.hughey.d3t02.flac
     6:14.00       65973644    ---   --   ---xx   rd2009-07-18.akg391.hughey.d3t03.flac
   157:25.64     1666249188 B                     (totals for 15 files, 0.5454 overall compression ratio)




More information about the bittorrent mailing list