[bittorrent] Drive-By Truckers 07/23/2009 Shoals Theatre Florence, AL neumann 140's

Automated Mailer noreply-bt.e at etree.org
Fri Jul 24 09:24:43 MDT 2009


Band:           Drive-By Truckers
Torrent Name:   Drive-By Truckers 07/23/2009 Shoals Theatre Florence, AL neumann 140's
Uploaded by:    datdork
DB Link:        
Details:        http://bt.etree.org/details.php?id=526963

Contact the seeder at http://db.etree.org/datdork

If the link to this show does not work, it was probably removed for
being non-trade-friendly.

Description / text file:
-------------------------
Drive-By Truckers
07/23/2009
Shoals Theatre
Florence, AL

source:   Neumann ak40 > lc3 > km100 (nos) > Lunatec V3 > Edirol R-44 @ 24/48
location: fob, 8th row, dfc 
transfer: SDHC card > PC > wavelab 5.01b > cd wave > traders little helper (flac level 8)

all editing (fades, resampled w/ resampler 192, dither w/ iZotope Ozone 3) done in wavelab 5.01b

*16bit/44.1khz fileset*

recorded and transferred by Gordon Wilson

01. Intro/tuning
02. Where The Devil Don't Stay
03. Boys From Alabama
04. Self Destructive Zones
05. The Sands of Iwo Jima
06. Love Like This
07. Sink Hole
08. A Ghost To Most
09. The Righteous Path
10. I'm Sorry Huston
11. Women Without Whiskey
12. 18 Wheels of Love
13. Marry Me
14. Hell No, I Ain't Happy
15. Shut Up and Get On The Plane
16. Let There Be Rock

Encore:
17. Home Field Advantage
18. 3 Dimes Down
19. Runaway Train
20. Buttholeville
21. Ronnie and Neil
22. Zip City
23. Angels and Fuselage

suggested disc split after track 14


shntool 3.0.4
Copyright (C) 2000-2007 Jason Jordan <shnutils at freeshell.org>

    length     expanded size    cdr  WAVE problems  fmt   ratio  filename
     0:20.26        3589196 B   ---   --   ---xx   flac  0.4007  dbt2009-07-23t01.flac
     5:19.23       56325740 B   ---   --   ---xx   flac  0.5373  dbt2009-07-23t02.flac
     7:02.68       74600780 B   ---   --   ---xx   flac  0.5030  dbt2009-07-23t03.flac
     3:58.27       42046748 B   ---   --   ---xx   flac  0.5295  dbt2009-07-23t04.flac
     7:26.03       78681500 B   ---   --   ---xx   flac  0.4585  dbt2009-07-23t05.flac
     6:09.61       65235116 B   ---   --   ---xx   flac  0.4495  dbt2009-07-23t06.flac
     4:40.14       49424972 B   ---   --   ---xx   flac  0.5401  dbt2009-07-23t07.flac
     4:36.62       48832268 B   ---   --   ---xx   flac  0.5344  dbt2009-07-23t08.flac
     4:43.00       49921244 B   ---   --   ---xx   flac  0.5652  dbt2009-07-23t09.flac
     3:49.43       40496780 B   ---   --   ---xx   flac  0.4620  dbt2009-07-23t10.flac
     4:34.38       48423020 B   ---   --   ---xx   flac  0.5341  dbt2009-07-23t11.flac
     7:53.09       83458412 B   ---   --   ---xx   flac  0.5339  dbt2009-07-23t12.flac
     5:53.55       62398604 B   ---   --   ---xx   flac  0.5686  dbt2009-07-23t13.flac
     7:04.49       74908892 B   ---   --   ---xx   flac  0.5466  dbt2009-07-23t14.flac
     4:54.02       51866348 B   ---   --   ---xx   flac  0.5765  dbt2009-07-23t15.flac
    14:35.40      154444124 B   ---   --   ---xx   flac  0.4905  dbt2009-07-23t16.flac
     4:43.28       49987100 B   ---   --   ---xx   flac  0.5291  dbt2009-07-23t17.flac
     2:52.30       30411404 B   ---   --   ---xx   flac  0.5525  dbt2009-07-23t18.flac
     4:45.18       50316380 B   ---   --   ---xx   flac  0.5478  dbt2009-07-23t19.flac
     9:44.28      103083500 B   ---   --   ---xx   flac  0.5229  dbt2009-07-23t20.flac
     5:33.58       58877660 B   ---   --   ---xx   flac  0.5580  dbt2009-07-23t21.flac
     5:28.19       57903932 B   ---   --   ---xx   flac  0.5388  dbt2009-07-23t22.flac
    10:40.38      112985420 B   ---   --   ---xx   flac  0.4750  dbt2009-07-23t23.flac
   136:49.64     1448219140 B                            0.5189  (23 files)





More information about the bittorrent mailing list