[bittorrent] Jay Webber The Ark Ann Arbor, Michigan 7/21/2009

Automated Mailer noreply-bt.e at etree.org
Wed Jul 22 11:53:14 MDT 2009


Band:           Other
Torrent Name:   Jay Webber The Ark Ann Arbor, Michigan 7/21/2009
Uploaded by:    zmanatl
DB Link:        
Details:        http://bt.etree.org/details.php?id=526919

Contact the seeder at http://db.etree.org/zmanatl

If the link to this show does not work, it was probably removed for
being non-trade-friendly.

Description / text file:
-------------------------
Jay Webber
The Ark
Ann Arbor, Michigan
7/21/2009

Source: Schoeps CCM4V'S(din)>Lunatec V2>Benchmark AD2K>
Sound Devices 722 (24/48) 
Location: FOB/DFC/KFC/ZFC/AARP Row B, Seat 4, 6' High
DSP: Sound Devices 722>Sound Forge 9.0>CD Wave>flac(16)
Recorded By: Z-Man
Seeded By: Z-Man
  
Disc I 

01 Introduction By Robin
02 Banter/Tuning
03 It Reminds Me Of You
04 I Decided To Go Insane
05 *I Know
06 *Light To Shine
07 *Michael's Door
08 *Journey Of The Soul
09 Island
10 She Can't Control The Groove
11 *Place In Time
12 Banter
13 *I Heard He Left The World On Tuesday

Disc II 

01 Banter
02 *Wait A Minute
03 Banter On Elizabeth Rivers
04 *Get On Up
05 Tuning
06 *#Some Days
07 *#Follow The Dream
08 Banter/Tuning
09 @Never Go Home 
10 *You're The Girl That I'm Waiting For
11 Tuning
12 *I Wanna Dance With You
13 Tuning 
14 *Little Town 
15 *Little Town (Redo)
Encore:
16 Tuning/Banter
17 ?
18 *Grandpa

* With Zack Light On Bass
# With Elizbeth Rivers On Vocals
@ Jay Solo

Jay Webber On Acoustic Guitars and Vocals
Stephan Kukurugya  On Grand Piano, Percussion, and Harmonica
Zack Light On Bass

Flac fingerprint 

jaywebber2009-07-21d01t01.flac:09407768b4390d959ccb78584bb8060a
jaywebber2009-07-21d01t02.flac:6da550e3177f3e91f06b49d2dc2f8e10
jaywebber2009-07-21d01t03.flac:d2ff77028b26b6184e84769352ec753d
jaywebber2009-07-21d01t04.flac:edb2b168bdaa8ac7ee896da18b13759b
jaywebber2009-07-21d01t05.flac:9a38654bc5322e1a365773faa2e14c6a
jaywebber2009-07-21d01t06.flac:b031f0327a52f8e37686d921187946f1
jaywebber2009-07-21d01t07.flac:58b28cfd3a5f334eaef3aa8300524f22
jaywebber2009-07-21d01t08.flac:b21e5d22d290414570041eeadcc82feb
jaywebber2009-07-21d01t09.flac:c101e86926476c870926f23e56ffdf56
jaywebber2009-07-21d01t10.flac:c619f2a1202c234078dea46bd7b114d7
jaywebber2009-07-21d01t11.flac:da8cac321a79f3e8b2ecce9cd7c0c707
jaywebber2009-07-21d01t12.flac:df37f8eecf69273de8413e14c8bfc9c6
jaywebber2009-07-21d01t13.flac:593397352b5a6fd810714c4cb4bfb2e3
jaywebber2009-07-21d02t01.flac:410eb8b3f0c0f7b6d6ae57b06159707b
jaywebber2009-07-21d02t02.flac:e3c1f9e81d9ba4a52c021e24ba0db5e3
jaywebber2009-07-21d02t03.flac:3fbb1c6b2adc6ba052177cc25242fb94
jaywebber2009-07-21d02t04.flac:5ef839dfe0de3ee6089396cc017de474
jaywebber2009-07-21d02t05.flac:5cd124b76f8d24d820e0c6223308b9d3
jaywebber2009-07-21d02t06.flac:8031ff33cdaf19a8868da268f8b8c907
jaywebber2009-07-21d02t07.flac:43d5dcf137ea68e8f49173c52f3e422c
jaywebber2009-07-21d02t08.flac:77aacbb1a67e33dda6cbfb089936ee0e
jaywebber2009-07-21d02t09.flac:80b298f703c51b698bd1026f439d269f
jaywebber2009-07-21d02t10.flac:ceabcf3f1258a79426593bcc5f43ffe9
jaywebber2009-07-21d02t11.flac:43d02475acf6875b157b1dd62b0c02e4
jaywebber2009-07-21d02t12.flac:562cfd7b7224df270a84c90061f5921e
jaywebber2009-07-21d02t13.flac:c98ef0ade17cbaffc69be4726e4839a5
jaywebber2009-07-21d02t14.flac:b519f52d6b85ee270c36b5761f71bf0a
jaywebber2009-07-21d02t15.flac:b1c78c07df2429a803afb3677cc11a82
jaywebber2009-07-21d02t16.flac:8dc6f2f13f3bcb4e1cd2b56ce5cc9872
jaywebber2009-07-21d02t17.flac:7f6e0d763b8e6a20653542fbce8166d4
jaywebber2009-07-21d02t18.flac:c697fbef8a26311e1f11d4d7271b52e7

shntool 

    length     expanded size    cdr  WAVE problems  fmt   ratio  filename
     2:32.40       26906924 B   ---   --   ---xx   flac  0.3950  jaywebber2009-07-21d01t01.flac
     0:54.59        9664412 B   ---   --   ---xx   flac  0.3548  jaywebber2009-07-21d01t02.flac
     5:44.15       60716924 B   ---   --   ---xx   flac  0.3700  jaywebber2009-07-21d01t03.flac
     4:55.14       52070972 B   ---   --   ---xx   flac  0.3450  jaywebber2009-07-21d01t04.flac
     4:24.22       46621388 B   ---   --   ---xx   flac  0.4046  jaywebber2009-07-21d01t05.flac
     7:28.41       79123676 B   ---   --   ---xx   flac  0.4074  jaywebber2009-07-21d01t06.flac
     9:02.53       95733500 B   ---   --   ---xx   flac  0.3794  jaywebber2009-07-21d01t07.flac
     5:16.49       55857692 B   ---   --   ---xx   flac  0.4363  jaywebber2009-07-21d01t08.flac
     5:10.28       54749900 B   ---   --   ---xx   flac  0.3964  jaywebber2009-07-21d01t09.flac
     5:45.70       61022684 B   ---   --   ---xx   flac  0.4022  jaywebber2009-07-21d01t10.flac
     5:14.50       55507244 B   ---   --   ---xx   flac  0.4047  jaywebber2009-07-21d01t11.flac
     2:24.54       25528652 B   ---   --   ---xx   flac  0.2926  jaywebber2009-07-21d01t12.flac
     4:49.28       51045500 B   ---   --   ---xx   flac  0.3279  jaywebber2009-07-21d01t13.flac
     1:23.06       14655356 B   ---   --   ---xx   flac  0.2975  jaywebber2009-07-21d02t01.flac
     5:21.31       56697356 B   ---   --   ---xx   flac  0.4229  jaywebber2009-07-21d02t02.flac
     1:29.51       15819596 B   ---   --   ---xx   flac  0.2619  jaywebber2009-07-21d02t03.flac
     3:48.72       40388588 B   ---   --   ---xx   flac  0.3908  jaywebber2009-07-21d02t04.flac
     2:24.13       25432220 B   ---   --   ---xx   flac  0.2844  jaywebber2009-07-21d02t05.flac
     5:54.69       62607932 B   ---   --   ---xx   flac  0.3906  jaywebber2009-07-21d02t06.flac
     4:55.24       52094492 B   ---   --   ---xx   flac  0.3412  jaywebber2009-07-21d02t07.flac
     1:28.51       15643196 B   ---   --   ---xx   flac  0.2758  jaywebber2009-07-21d02t08.flac
     5:12.10       55060364 B   ---   --   ---xx   flac  0.2876  jaywebber2009-07-21d02t09.flac
     3:52.17       40964828 B   ---   --   ---xx   flac  0.4319  jaywebber2009-07-21d02t10.flac
     1:36.32       17009708 B   ---   --   ---xx   flac  0.2764  jaywebber2009-07-21d02t11.flac
     4:04.73       43213340 B   ---   --   ---xx   flac  0.3071  jaywebber2009-07-21d02t12.flac
     1:07.61       11962316 B   ---   --   ---xx   flac  0.2472  jaywebber2009-07-21d02t13.flac
     1:18.06       13773356 B   ---   --   ---xx   flac  0.2649  jaywebber2009-07-21d02t14.flac
     5:24.27       57217148 B   ---   --   ---xx   flac  0.3245  jaywebber2009-07-21d02t15.flac
     2:44.11       28955516 B   ---   --   ---xx   flac  0.2618  jaywebber2009-07-21d02t16.flac
     3:17.51       34870796 B   ---   --   ---xx   flac  0.2993  jaywebber2009-07-21d02t17.flac
     5:14.12       55417868 B   ---   --   ---xx   flac  0.3017  jaywebber2009-07-21d02t18.flac
   124:22.15     1316333444 B                            0.3591  (31 files)


 



More information about the bittorrent mailing list