[bittorrent] 1989-05-27 Garcia, Weir, Fogerty AIDS Benefit -- Gastwirt-SirMick-GEMS SBD

Automated Mailer noreply-bt.e at etree.org
Wed Jul 22 11:49:20 MDT 2009


Band:           Garcia
Torrent Name:   1989-05-27 Garcia, Weir, Fogerty AIDS Benefit -- Gastwirt-SirMick-GEMS SBD
Uploaded by:    SteveSw
DB Link:        
Details:        http://bt.etree.org/details.php?id=526918

Contact the seeder at http://db.etree.org/SteveSw

If the link to this show does not work, it was probably removed for
being non-trade-friendly.

Description / text file:
-------------------------
John Fogerty
with Jerry Garcia, Bob Weir, Steve Jordan,
Randy Jackson and Clarence Clemmons
AIDS Benefit
Oakland Coliseum Stadium,
Oakland, CA
05/27/89

source: dsbd * > dat > wav > flac
transfer: dat played back in Sony DTC2000ES > M-Audio Delta 410 via SPDIF > Soundforge.
Transfered by Rich Gastwirt.

01  crowd > Born On The Bayou
02  Green River
03  Down On The Corner
04  Rock And Roll Girl
05  Centerfield
06  Proud Mary
07  The Midnight Special
08  Bad Moon Rising
09  Fortunate Son
10  crowd

encores:

11   Suzy Q
12   Long Tall Sally  > Bill Graham outro//


notes:

- small dropout near the end of Fortunate Son repaired
- a couple of minor artifacts removed
- levels boosted by 6.81 decibels in each channel, except for the first 3:56,
  where extra boost was applied to bring the levels up to rest of the show

comments:

* Dat was obtained from Dan Healy shortly after the show, assumed to be DSBD

Thanks to Rich for being in the right place at the right time, this is a peach of 
a recording!!

edited & mastered
SIRMick
November 2006

A GEMS production -+-+- www.shnflac.net -+-+-


SHNTOOL LEN
    length     expanded size    cdr  WAVE problems  fmt   ratio  filename
     5:15.12       55594268 B   ---   --   ---xx   flac  0.5448  fogerty89-05-27d1t01.flac
     3:37.55       38408204 B   ---   --   ---xx   flac  0.5747  fogerty89-05-27d1t02.flac
     4:02.08       42707660 B   ---   --   ---xx   flac  0.5291  fogerty89-05-27d1t03.flac
     4:21.39       46132172 B   ---   --   ---xx   flac  0.5559  fogerty89-05-27d1t04.flac
     4:51.19       51377132 B   ---   --   ---xx   flac  0.5565  fogerty89-05-27d1t05.flac
     3:53.60       41242364 B   ---   --   ---xx   flac  0.5639  fogerty89-05-27d1t06.flac
     4:50.35       51238364 B   ---   --   ---xx   flac  0.5626  fogerty89-05-27d1t07.flac
     2:15.74       23988092 B   ---   --   ---xx   flac  0.6477  fogerty89-05-27d1t08.flac
     2:56.01       31048796 B   ---   --   ---xx   flac  0.6419  fogerty89-05-27d1t09.flac
     2:19.66       24674876 B   ---   --   ---xx   flac  0.3872  fogerty89-05-27d1t10.flac
     4:36.72       48855788 B   ---   --   ---xx   flac  0.5576  fogerty89-05-27d1t11.flac
     2:55.04       30879452 B   ---   --   ---xx   flac  0.5610  fogerty89-05-27d1t12.flac
    45:55.70      486147168 B                            0.5572  (12 files)





More information about the bittorrent mailing list