[bittorrent] Stovall Smith's Olde Bar 7/15/2009

Automated Mailer noreply-bt.e at etree.org
Wed Jul 22 11:49:03 MDT 2009


Band:           Other
Torrent Name:   Stovall Smith's Olde Bar 7/15/2009
Uploaded by:    zmanatl
DB Link:        
Details:        http://bt.etree.org/details.php?id=526917

Contact the seeder at http://db.etree.org/zmanatl

If the link to this show does not work, it was probably removed for
being non-trade-friendly.

Description / text file:
-------------------------
Stovall
Georgia Theatre Employee Benefit
Smith's Olde Bar
Atlanta, Georgia
7/15/2009

Source: Schoeps CCM4V'S(din)>Lunatec V2>Benchmark AD2K>
Sound Devices 722 (24/48) 
Location: FOB/DFC/KFC/ZFC/AARP 14' From Stage, 7' High
DSP: Sound Devices 722>Sound Forge 9.0>CD Wave>flac(16)
Recorded By: Z-Man
Seeded By: Z-Man
  
Disc I 

01 Southern Vine
02 Empty Bottle
03 Walk Alone
04 Stop Lettin' Me Go
05 Can't Deny It
06 Banter
07 Champagne

Flac fingerprint 

stovall2009-07-15d01t01.flac:7ed9a8fd1c031d1c82bbf4660ae133e9
stovall2009-07-15d01t02.flac:435fef8182d8a6e4da5c07a6bfa8fb54
stovall2009-07-15d01t03.flac:ad60c0f5b69ce369f37763e8ef863070
stovall2009-07-15d01t04.flac:8b56d1861c29be02738e05ad80da5ab0
stovall2009-07-15d01t05.flac:3bbd8d9fbe03aff54f29e434220e643e
stovall2009-07-15d01t06.flac:72d1851ee71a1309c0cc6716d7b837db
stovall2009-07-15d01t07.flac:23ed5b3608b8e3a076f9df6244279833

shntool 

    length     expanded size    cdr  WAVE problems  fmt   ratio  filename
     3:24.53       36110300 B   ---   --   ---xx   flac  0.5598  stovall2009-07-15d01t01.flac
     3:36.48       38215340 B   ---   --   ---xx   flac  0.5391  stovall2009-07-15d01t02.flac
     5:18.40       56189324 B   ---   --   ---xx   flac  0.4524  stovall2009-07-15d01t03.flac
     4:53.62       51831068 B   ---   --   ---xx   flac  0.5057  stovall2009-07-15d01t04.flac
     3:20.58       35416460 B   ---   --   ---xx   flac  0.5715  stovall2009-07-15d01t05.flac
     1:16.46       13514636 B   ---   --   ---xx   flac  0.2840  stovall2009-07-15d01t06.flac
     3:27.58       36651260 B   ---   --   ---xx   flac  0.5310  stovall2009-07-15d01t07.flac
    25:18.65      267928388 B                            0.5076  (7 files)







More information about the bittorrent mailing list