[bittorrent] Ekoostik Hookah - 2001-09-21 - Oktoberfest, Columbus OH (Not on LMA)

Automated Mailer noreply-bt.e at etree.org
Tue Jul 21 16:10:50 MDT 2009


Band:           Ekoostik Hookah
Torrent Name:   Ekoostik Hookah - 2001-09-21 - Oktoberfest, Columbus OH (Not on LMA) 
Uploaded by:    ekoostikal
DB Link:        http://db.etree.org/shninfo_detail.php?shnid=99368
Details:        http://bt.etree.org/details.php?id=526897

Contact the seeder at http://db.etree.org/ekoostikal

If the link to this show does not work, it was probably removed for
being non-trade-friendly.

Description / text file:
-------------------------
Ekoostik Hookah 
2001-09-21
Oktoberfest, Main Stage
Columbus, OH

Source: NAK 300's (unknown caps) > SBM-1 > D8
Lineage: D8 > (?) > shn > CDR > EAC > xACT > Flac (verified, level 8)
EAC & FLAC by: ekoostikal ( capt.krinklebeiniii at yahoo.com ) 6/6/2009

Disc 1:
Set 1:
01. Dragonfly
02. Good Time (Merry-Go-Round)
03. Thief
04. Life Is Good
05. Godspeed
06. Ohio Grown >
07. Loner >
08. Grass >
09. Loner

Disc 2:
Set 2:
01. Chicken Dance > Beer Barrel Polka >
02. LAX
03. Walk Real Fast
04. Riversong
05. Hot Dog
06. And When I Die Rift > America The Beautiful >
07. Raging River
08. Bone
Encore:
09. Blue Sky


shntool:
   length     expanded size    cdr  WAVE problems  fmt   ratio  filename
     7:52.45       83366684 B   ---   --   ---xx  eh2001-09-21.nak300.d1t01.flac
     9:34.41      101350076 B   ---   --   ---xx  eh2001-09-21.nak300.d1t02.flac
     5:33.28       58807100 B   ---   --   ---xx  eh2001-09-21.nak300.d1t03.flac
     8:50.38       93581420 B   ---   --   ---xx  eh2001-09-21.nak300.d1t04.flac
     9:29.49      100486892 B   ---   --   ---xx  eh2001-09-21.nak300.d1t05.flac
     6:36.34       69934412 B   ---   --   ---xx  eh2001-09-21.nak300.d1t06.flac
     4:13.70       44793884 B   ---   --   ---xx  eh2001-09-21.nak300.d1t07.flac
     3:02.38       32194220 B   ---   --   ---xx  eh2001-09-21.nak300.d1t08.flac
     5:28.40       57953324 B   ---   --   ---xx  eh2001-09-21.nak300.d1t09.flac
     1:07.44       11922332 B   ---   --   ---xx  eh2001-09-21.nak300.d2t01.flac
     8:01.56       84980156 B   ---   --   ---xx  eh2001-09-21.nak300.d2t02.flac
     9:04.21       96011036 B   ---   --   ---xx  eh2001-09-21.nak300.d2t03.flac
    11:33.34      122325212 B   ---   --   ---xx  eh2001-09-21.nak300.d2t04.flac
     4:31.41       47900876 B   ---   --   ---xx  eh2001-09-21.nak300.d2t05.flac
     2:59.48       31688540 B   ---   --   ---xx  eh2001-09-21.nak300.d2t06.flac
    11:30.54      121843052 B   ---   --   ---xx  eh2001-09-21.nak300.d2t07.flac
    10:31.01      111310796 B   ---   --   ---xx  eh2001-09-21.nak300.d2t08.flac
     7:06.44       75249932 B   ---   --   ---xx  eh2001-09-21.nak300.d2t09.flac
   127:08.51     1345699944 B                            0.5705  (18 files)




More information about the bittorrent mailing list