[bittorrent] gd79-01-18.nak300.rolfe.miller.100209.sbeok.flac16 ** New Miller **

Automated Mailer noreply-bt.e at etree.org
Mon Jul 20 04:49:25 MDT 2009


Band:           Grateful Dead
Torrent Name:   gd79-01-18.nak300.rolfe.miller.100209.sbeok.flac16  ** New Miller  **
Uploaded by:    Friend_Of_The_Band
DB Link:        http://db.etree.org/shn/100209
Details:        http://bt.etree.org/details.php?id=526851

Contact the seeder at http://db.etree.org/Friend_Of_The_Band

If the link to this show does not work, it was probably removed for
being non-trade-friendly.

Description / text file:
-------------------------
Grateful Dead - January 18, 1979
Civic Center - Providence, RI

Recording Info:
(FOB) Nakamichi 300/CP1 -> Cassette Master (Maxell UDXLI/Dolby B)

Transfer Info:
Cassette Master (Nakamichi DR-1/Dolby B) -> Sound Devices 744T (24bit/96k) ->
Samplitude Professional v10.21 -> FLAC/16
(3 Discs Audio / 2 Discs FLAC)

All Transfers and Mastering By Charlie Miller
charliemiller87 at earthlink.net
July 18, 2009

Patch Info:
(FOB) Sennheiser 441 -> Cassette Master -> Dat -> CD (shnid=13058) supplies:
The Other One (9:15 - 10:29) (11:24 - 11:34)

Notes:
-- Set 2 is seamless
-- Thanks to Steve Rolfe for lending me his masters
-- Thanks to Joe B. Jones for his help pitch correcting the patch source

Set 1:
d1t01 - Tuning
d1t02 - Promised Land
d1t03 - They Love Each Other
d1t04 - Mama Tried ->
d1t05 - Mexicali Blues
d1t06 - Friend Of The Devil
d1t07 - Cassidy
d1t08 - Jack-A-Roe
d1t09 - Looks Like Rain
d1t10 - Ramble On Rose
d1t11 - New Minglewood Blues
d1t12 - Deal

Set 2:
d2t01 - Tuning
d2t02 - I Need A Miracle ->
d2t03 - Bertha ->
d2t04 - Good Lovin'
d2t05 - From The Heart Of Me
d2t06 - Ship Of Fools
d3t01 - He's Gone ->
d3t02 - Truckin' ->
d3t03 - The Other One ->
d3t04 - Wharf Rat ->
d3t05 - Around And Around

Encore:
d3t06 - U.S. Blues


SHNTOOL OUTPUT:
    length     expanded size   cdr  WAVE problems filename
     1:14.73       13225340    ---   --   -----   gd79-01-18d1t01.wav
     5:17.70       56083484    ---   --   -----   gd79-01-18d1t02.wav
     8:22.14       88585772    ---   --   -----   gd79-01-18d1t03.wav
     2:47.48       29571740    ---   --   -----   gd79-01-18d1t04.wav
     5:17.21       55968236    ---   --   -----   gd79-01-18d1t05.wav
    10:04.42      106644428    ---   --   -----   gd79-01-18d1t06.wav
     5:59.25       63386444    ---   --   -----   gd79-01-18d1t07.wav
     6:05.37       64473068    ---   --   -----   gd79-01-18d1t08.wav
     7:33.06       79923356    ---   --   -----   gd79-01-18d1t09.wav
     9:53.46      104713436    ---   --   -----   gd79-01-18d1t10.wav
     5:56.65       62951324    ---   --   -----   gd79-01-18d1t11.wav
     7:23.23       78199340    ---   --   -----   gd79-01-18d1t12.wav
     2:03.72       21866588    ---   --   -----   gd79-01-18d2t01.wav
     6:07.27       64802348    ---   --   -----   gd79-01-18d2t02.wav
     6:50.12       72352268    ---   --   -----   gd79-01-18d2t03.wav
     7:44.46       81957836    ---   --   -----   gd79-01-18d2t04.wav
     5:15.72       55735388    ---   --   -----   gd79-01-18d2t05.wav
    10:04.12      106573868    ---   --   -----   gd79-01-18d2t06.wav
    12:58.57      137373308    ---   --   -----   gd79-01-18d3t01.wav
     8:28.20       89658284    ---   --   -----   gd79-01-18d3t02.wav
    12:40.41      134160476    ---   --   -----   gd79-01-18d3t03.wav
    10:07.51      107194796    ---   --   -----   gd79-01-18d3t04.wav
     8:26.50       89376044    ---   --   -----   gd79-01-18d3t05.wav
     5:41.64       60302972    ---   --   -----   gd79-01-18d3t06.wav
   172:26.19     1825080144 B                     (totals for 24 files)




More information about the bittorrent mailing list