[bittorrent] Grateful Dead - 10/01/77 Portland OR BBD SBD

Automated Mailer noreply-bt.e at etree.org
Mon Jul 20 04:06:58 MDT 2009


Band:           Grateful Dead
Torrent Name:   Grateful Dead - 10/01/77 Portland OR BBD SBD
Uploaded by:    parabolaus
DB Link:        http://db.etree.org/shninfo_detail.php?shnid=86234
Details:        http://bt.etree.org/details.php?id=526849

Contact the seeder at http://db.etree.org/parabolaus

If the link to this show does not work, it was probably removed for
being non-trade-friendly.

Description / text file:
-------------------------
Grateful Dead
10/01/1977
Paramount Theatre
Portland, OR

Source:  7" two track BBD reel w/ DBX-1 @ 7 1/2 ips > PCM501ES (beta) > PCM501ES analog out > DBX-1 Decoder > analog in PCMF1/PCM501ES analog out > Fostex D5 @ 48 kHz > WBOTB Master DAT (DAT-1).
Original WBOTB DATs procured & circulated in 1996 by Jace Crouch and Tim Deibert.
Thanks to trailmix for providing the lineaged master DAT  for transfer.

Transfer and mastering:
Jace's DAT (48 KHz) playback on Sony PCM-R500, AES digital output > Benchmark DAC1, XLR analog output > Grace Lunatec V3, sample rate at 96 KHz, AES digiout) > AES digital input, professional mode/sync - LynxTwo soundcard in E6400 dual core processor-based PC > HD as 24 bit/96 KHz WAV > Ozone 3.0 > MBIT+ dithering to 16/44.1 KHz WAV > CDWAV 1.9 (tracking) > FLAC (level 8).   Recording, editing and mastering with Wavelab 5.0.  All cables were Mogami Gold 0.3m pro-audio XLR cables.  All components in the transfer/mastering chain were powered from a Cyberpower 1285AVR noise-attenuated uninterruptible AC power supply.   Transferred and mastered by ChrisL.
Seeded by the Green Mountain Bros. at bt.etree.org, July 2007.

Disc I - Set I
01  //The Promised Land//
02  //They Love Each Other
03  Mexicali Blues
04  Dire Wolf
05  Cassidy
06  Deal
07  Passenger
08  Tenessee Jed
09  New Minglewood Blues
10  Peggy-O
11  The Music Never Stopped
Set  II
12  tuning
13  Bertha >
14  Good Lovin'

Disc II - Set II (Cont'd)
01  It Must Have Been The Roses
02  Esimated Prophet >
03  Eyes Of The World > 
04  Dancing In The Street >
05  Drums >
06  Not Fade Away >
07  Black Peter >
08  Around and Around
no encore

Comments:
- Most of "Promised Land" is missing with cuts at the beginning and end.  Also the mix fluctuates and is largely bass and drums.
- First few minutes of "They Love Each Other" are absent.
- Popping/distortion on master DAT during first 1:20 or so of "Estimated Prophet" attenuated with manual redrawing of waveform.  Some audible artifacts remain, though the end result is an improvement.  These are on the master DAT and all previous circulating sources and are not related to transfer.  A few similar sounding pops were present at the end of the track preceding it (IMHBTR) and on previous circulating sources (though not commented on in the db) and were also attenuated.
- Reel flip in Drums crossfaded.
- High pitched whine @ 15600 KHz (inaudible to probably >90% of Jerry-experienced deadheads, but not their kids/grandkids) was attenuated using Waves Q10 Supernotch on 24/96 fileset.

SHNTOOL LEN OUTPUT:
    length     expanded size   cdr  WAVE problems filename
     1:07.59       11957612    ---   --   ---xx   gd1977-10-01d1t01.flac
     4:51.37       51419468    ---   --   ---xx   gd1977-10-01d1t02.flac
     4:34.21       48383036    ---   --   ---xx   gd1977-10-01d1t03.flac
     4:23.03       46400300    ---   --   ---xx   gd1977-10-01d1t04.flac
     5:07.58       54291260    ---   --   ---xx   gd1977-10-01d1t05.flac
     7:53.32       83512508    ---   --   ---xx   gd1977-10-01d1t06.flac
     3:55.14       41486972    ---   --   ---xx   gd1977-10-01d1t07.flac
     8:21.65       88529324    ---   --   ---xx   gd1977-10-01d1t08.flac
     6:10.60       65409164    ---   --   ---xx   gd1977-10-01d1t09.flac
     9:38.24      102015692    ---   --   ---xx   gd1977-10-01d1t10.flac
     8:17.21       87720236    ---   --   ---xx   gd1977-10-01d1t11.flac
     1:31.41       16148876    ---   --   ---xx   gd1977-10-01d1t12.flac
     6:09.61       65235116    ---   --   ---xx   gd1977-10-01d1t13.flac
     7:51.52       83206748    ---   --   ---xx   gd1977-10-01d1t14.flac
     9:53.73      104776940    ---   --   ---xx   gd1977-10-01d2t01.flac
     9:46.03      103377500    ---   --   ---xx   gd1977-10-01d2t02.flac
    11:47.62      124860668    ---   --   ---xx   gd1977-10-01d2t03.flac
    10:54.09      115386812    ---   --   ---xx   gd1977-10-01d2t04.flac
     4:51.01       51334796    ---   --   ---xx   gd1977-10-01d2t05.flac
    10:39.65      112872524    ---   --   ---xx   gd1977-10-01d2t06.flac
     9:04.21       96011036    ---   --   ---xx   gd1977-10-01d2t07.flac
     8:51.33       93746060    ---   --   ---xx   gd1977-10-01d2t08.flac
   155:42.65     1648082648 B                     (totals for 22 files, 0.5271 overall compression ratio)



More information about the bittorrent mailing list