[bittorrent] gd78-11-14.nak300.rolfe.miller.100205.sbeok.flac16 ** New Miller **

Automated Mailer noreply-bt.e at etree.org
Sun Jul 19 20:44:40 MDT 2009


Band:           Grateful Dead
Torrent Name:   gd78-11-14.nak300.rolfe.miller.100205.sbeok.flac16 ** New Miller **
Uploaded by:    Friend_Of_The_Band
DB Link:        http://db.etree.org/shn/100205
Details:        http://bt.etree.org/details.php?id=526843

Contact the seeder at http://db.etree.org/Friend_Of_The_Band

If the link to this show does not work, it was probably removed for
being non-trade-friendly.

Description / text file:
-------------------------
Grateful Dead - November 14, 1978
Boston Music Hall - Boston, MA

Recording Info:
Nakamichi 300/CP1 -> Cassette Master (Maxell UDXLI/Dolby B)

Transfer Info:
Cassette Master (Nakamichi DR-1/Dolby B) -> Sound Devices 744T (24bit/96k) ->
Samplitude Professional v10.21 -> FLAC/16
(3 Discs Audio / 2 Discs FLAC)

All Transfers and Mastering By Charlie Miller
charliemiller87 at earthlink.net
July 18, 2009

Notes:
-- Set 2 is seamless
-- Recorded front row center balcony by Steve Rolfe
-- Thanks to Steve Rolfe for lending me his masters

Set 1:
d1t01 - Tuning
d1t02 - Sugaree
d1t03 - El Paso
d1t04 - Candyman
d1t05 - It's All Over Now
d1t06 - Loser
d1t07 - Passenger
d1t08 - Stagger Lee
d1t09 - I Need A Miracle

Set 2:
d2t01 - Tuning
d2t02 - Bertha ->
d2t03 - Good Lovin'
d2t04 - From The Heart Of Me
d2t05 - Ship Of Fools
d3t01 - Estimated Prophet ->
d3t02 - Eyes Of The World ->
d3t03 - Drums ->
d3t04 - Space ->
d3t05 - Wharf Rat ->
d3t06 - Not Fade Away ->
d3t07 - Goin' Down The Road Feeling Bad

Encore:
d3t08 - Johnny B. Goode


SHNTOOL OUTPUT:
    length     expanded size   cdr  WAVE problems filename
     1:28.20       15570284    ---   --   -----   gd78-11-14d1t01.wav
    11:44.61      124329116    ---   --   -----   gd78-11-14d1t02.wav
     6:12.68       65780780    ---   --   -----   gd78-11-14d1t03.wav
     9:39.68      102295580    ---   --   -----   gd78-11-14d1t04.wav
     8:01.41       84944876    ---   --   -----   gd78-11-14d1t05.wav
     9:06.42       96413228    ---   --   -----   gd78-11-14d1t06.wav
     6:57.12       73587068    ---   --   -----   gd78-11-14d1t07.wav
     6:37.59       70169612    ---   --   -----   gd78-11-14d1t08.wav
     6:20.04       67041452    ---   --   -----   gd78-11-14d1t09.wav
     1:21.44       14391932    ---   --   -----   gd78-11-14d2t01.wav
     6:41.58       70872860    ---   --   -----   gd78-11-14d2t02.wav
     8:36.06       91036556    ---   --   -----   gd78-11-14d2t03.wav
     4:56.72       52383788    ---   --   -----   gd78-11-14d2t04.wav
    10:25.35      110332364    ---   --   -----   gd78-11-14d2t05.wav
    11:16.56      119378156    ---   --   -----   gd78-11-14d3t01.wav
    10:42.36      113333516    ---   --   -----   gd78-11-14d3t02.wav
     8:09.34       86339612    ---   --   -----   gd78-11-14d3t03.wav
     4:56.42       52313228    ---   --   -----   gd78-11-14d3t04.wav
     8:35.67       91003628    ---   --   -----   gd78-11-14d3t05.wav
     8:26.38       89347820    ---   --   -----   gd78-11-14d3t06.wav
     8:16.32       87569708    ---   --   -----   gd78-11-14d3t07.wav
     4:16.57       45292508    ---   --   -----   gd78-11-14d3t08.wav
   162:51.52     1723727672 B                     (totals for 22 files)




More information about the bittorrent mailing list