[bittorrent] Grateful Dead - 10/02/77 Portland OR BBD SBD

Automated Mailer noreply-bt.e at etree.org
Sat Jul 18 08:53:13 MDT 2009


Band:           Grateful Dead
Torrent Name:   Grateful Dead - 10/02/77 Portland OR BBD SBD
Uploaded by:    parabolaus
DB Link:        http://db.etree.org/shninfo_detail.php?shnid=86354
Details:        http://bt.etree.org/details.php?id=526798

Contact the seeder at http://db.etree.org/parabolaus

If the link to this show does not work, it was probably removed for
being non-trade-friendly.

Description / text file:
-------------------------
Grateful Dead
10/02/1977
Paramount Theatre
Portland, OR

Source:  7" two track BBD reel w/ DBX-1 @ 7 1/2 ips > PCM501ES (beta) > PCM501ES analog out > DBX-1 Decoder > analog in PCMF1/PCM501ES analog out > Fostex D5 @ 48 kHz X2 > WBOTB Master DAT (DAT-2).
Original WBOTB DATs procured & circulated in 1996 by Jace Crouch and Tim Deibert.
Thanks to trailmix for providing the lineaged master DAT  for transfer.

Transfer and mastering:
Jace's DAT (48 KHz) playback on Sony PCM-R500, AES digital output > Benchmark DAC1, XLR analog output > Grace Lunatec V3, sample rate at 96 KHz, AES digiout) > AES digital input, professional mode/sync - LynxTwo soundcard in E6400 dual core processor-based PC > HD as 24 bit/96 KHz WAV > Ozone 3.0 > MBIT+ dithering to 16/44.1 KHz WAV > CDWAV 1.9 (tracking) > FLAC (level 8).   Recording, editing and mastering with Wavelab 5.0.  All cables were Mogami Gold 0.3m pro-audio XLR cables.  All components in the transfer/mastering chain were powered from a Cyberpower 1285AVR noise-attenuated uninterruptible AC power supply.   Transferred and mastered by ChrisL.
Seeded by the Green Mountain Bros. at bt.etree.org, July 2007.

Disc I - Set I
01  tuning
02  Casey Jones
03  Jack Straw
04  Sunrise
05  Brown Eyed Women
06  El Paso
07  Dupree's Diamond Blues
08  Let It Grow
09  Deal

Disc II - Set II
01  tuning
02  Samson And Delilah
03  Scarlet Begonias >
04  Fire On The Mountain

Disc III - Set II (cont'd)
01  Funiculi Funicula
02  Playing In The Band >
03  Drums >
04  The Wheel >
05  Truckin' >
06  The Other One >
07  Wharf Rat >
08  Sugar Magnolia
09  encore call
Encore
10  Johnny B. Goode

Comments:
- High pitched whine @ 15600 KHz was attenuated using Waves Q10 Supernotch on 24/96 fileset.
- Intermittently before the start of several tracks, there is a stage-amplifier related buzzing that is faded up/down. 
- Reel flip during "Wharf Rat" smoothed to a nearly seamless state with a 4 measure loop and crossfade.

SHNTOOL LEN OUTPUT:
    length     expanded size   cdr  WAVE problems filename
     0:52.31        9245756    ---   --   ---xx   gd1977-10-02d1t01.flac
    12:51.20      136051484    ---   --   ---xx   gd1977-10-02d1t02.flac
     5:54.14       62478572    ---   --   ---xx   gd1977-10-02d1t03.flac
     5:32.35       58647164    ---   --   ---xx   gd1977-10-02d1t04.flac
     6:19.49       66970892    ---   --   ---xx   gd1977-10-02d1t05.flac
     6:34.67       69659228    ---   --   ---xx   gd1977-10-02d1t06.flac
     6:34.60       69642764    ---   --   ---xx   gd1977-10-02d1t07.flac
    13:54.60      147258764    ---   --   ---xx   gd1977-10-02d1t08.flac
     6:58.35       73817564    ---   --   ---xx   gd1977-10-02d1t09.flac
     2:02.36       21605516    ---   --   ---xx   gd1977-10-02d2t01.flac
     8:02.35       85107164    ---   --   ---xx   gd1977-10-02d2t02.flac
     9:01.49       95547692    ---   --   ---xx   gd1977-10-02d2t03.flac
    14:34.18      154215980    ---   --   ---xx   gd1977-10-02d2t04.flac
     0:59.38       10497020    ---   --   ---xx   gd1977-10-02d3t01.flac
     8:55.59       94512812    ---   --   ---xx   gd1977-10-02d3t02.flac
     6:18.12       66707468    ---   --   ---xx   gd1977-10-02d3t03.flac
     5:10.11       54709916    ---   --   ---xx   gd1977-10-02d3t04.flac
     8:47.06       92976956    ---   --   ---xx   gd1977-10-02d3t05.flac
     7:26.08       78693260    ---   --   ---xx   gd1977-10-02d3t06.flac
    10:57.44      115998332    ---   --   ---xx   gd1977-10-02d3t07.flac
     8:54.16       94235276    ---   --   ---xx   gd1977-10-02d3t08.flac
     2:15.46       23922236    ---   --   ---xx   gd1977-10-02d3t09.flac
     4:33.15       48192524    ---   --   ---xx   gd1977-10-02d3t10.flac
   163:31.14     1730694340 B                     (totals for 23 files, 0.5409 overall compression ratio)



More information about the bittorrent mailing list