[bittorrent] Stve Kimock Guitar Workshop2009-07-05.mtx.miller.100172.flac16 - High Seirra Music Festival

Automated Mailer noreply-bt.e at etree.org
Fri Jul 17 14:06:27 MDT 2009


Band:           Steve Kimock & Friends
Torrent Name:   Stve Kimock Guitar Workshop2009-07-05.mtx.miller.100172.flac16 - High Seirra Music Festival
Uploaded by:    ziko
DB Link:        http://db.etree.org/shn/100172
Details:        http://bt.etree.org/details.php?id=526775

Contact the seeder at http://db.etree.org/ziko

If the link to this show does not work, it was probably removed for
being non-trade-friendly.

Description / text file:
-------------------------
Steve Kimock Guitar Workshop - July 5, 2009
Plumas County Fairgrounds - Quincy, CA
High Sierra Music Festival - Music Hall

Recording Info:
SBD (Feed From Howard Danchik's House Mix) + (Stage) Schoeps CMC6/MK4 ->
Sound Devices 744T (24bit/96k) -> Samplitude Professional v10.21 -> FLAC/16
(1 Disc Audio / 1 Disc FLAC)

Recorded and Mixed By Charlie Miller
charlie at kimock.com

Line Up:
Steve Kimock - guitars
John Kimock - drums
Trevor Exter - cello
Reed Mathis - bass


SHNTOOL OUTPUT:
    length     expanded size   cdr  WAVE problems filename
    13:26.41      142274876    ---   --   -----   workshop2009-07-05d1t01.wav
    10:53.42      115288028    ---   --   -----   workshop2009-07-05d1t02.wav
     7:10.49       75967292    ---   --   -----   workshop2009-07-05d1t03.wav
    13:26.53      142303100    ---   --   -----   workshop2009-07-05d1t04.wav
    27:09.49      287470892    ---   --   -----   workshop2009-07-05d1t05.wav
    72:07.09      763304188 B                     (totals for 5 files)




More information about the bittorrent mailing list