[bittorrent] gd81-03-13.s2.sbd.unknown.33336.sbeok.flac16

Automated Mailer noreply-bt.e at etree.org
Fri Jul 17 09:51:44 MDT 2009


Band:           Grateful Dead
Torrent Name:   gd81-03-13.s2.sbd.unknown.33336.sbeok.flac16
Uploaded by:    WHARFRAT73
DB Link:        http://db.etree.org/shn/33336
Details:        http://bt.etree.org/details.php?id=526771

Contact the seeder at http://db.etree.org/WHARFRAT73

If the link to this show does not work, it was probably removed for
being non-trade-friendly.

Description / text file:
-------------------------
GRATEFUL DEAD - 03-13-1981 
Memorial Auditorium 
Utica NY 


Set 2
d1t01 - Cold Rain & Snow  
d1t02 - Samson & Delilah 
d1t03 - It Must Have Been The Roses 
d1t04 - Estimated Prophet > 
d1t05 - Eyes of the World > 
d1t06 - Drums > 
d2t01 - Space > 
d2t02 - Lost Sailor > 
d2t03 - Saint of Circumstance > 
d2t04 - Wharf Rat > 
d2t05 - Sugar Magnolia 

Source: Soundboard of unknown lineage. 
Transfer: Old cassette > Sony TC-D5M > Soundblaster > WAV > Soundforge > 
CD-Wave > TLH v.1.0.0.72 (for SBE-fix, checksums, and FLAC compression). 

Jim Wise's AUD (Sen 421's > Sony D-5) provides the following patches: 
Eyes of the World, 6:45 to 7:17 
Sugar Magnolia, 5:51 to 6:04 
Sugar Magnolia, 8:52 to 9:25 

This tape was almost too far gone to work on, but since the show is one 
of the great ones from '81, and no SBD has circulated, well, here it is. 
Soundforge was used for numerous operations: corrected the pitch by 
slowing it down by 0.9 semitones, removed some hiss, repaired dropouts, 
made fades, cross-faded the AUD patches, and numerous other repairs. Note 
that the 266-MB overall file size is small due to the mono wav data, and 
is not due to any mp3 or lossy compression. The break between discs is 
seamless for reassembly onto longer media. Thanks again to Jake Feinberg 
for digging deep into his cassette collection. March 2006 -- ENJOY!


Shntool Output:

    length     expanded size   cdr  WAVE problems filename
     6:32.20       69195884    ---   --   ---xx   gd1981-03-13-s2sbd-d1t01.flac
     9:58.51      105607196    ---   --   ---xx   gd1981-03-13-s2sbd-d1t02.flac
     9:33.65      101230124    ---   --   ---xx   gd1981-03-13-s2sbd-d1t03.flac
    14:02.18      148571180    ---   --   ---xx   gd1981-03-13-s2sbd-d1t04.flac
    12:20.45      130641884    ---   --   ---xx   gd1981-03-13-s2sbd-d1t05.flac
     7:06.68       75306380    ---   --   ---xx   gd1981-03-13-s2sbd-d1t06.flac
     3:10.73       33687740    ---   --   ---xx   gd1981-03-13-s2sbd-d2t01.flac
     6:41.54       70863452    ---   --   ---xx   gd1981-03-13-s2sbd-d2t02.flac
     6:52.29       72745052    ---   --   ---xx   gd1981-03-13-s2sbd-d2t03.flac
    10:25.16      110287676    ---   --   ---xx   gd1981-03-13-s2sbd-d2t04.flac
     9:25.40       99760124    ---   --   ---xx   gd1981-03-13-s2sbd-d2t05.flac
    96:10.29     1017896692 B                     (totals for 11 files, 0.2749 overall compression ratio)

There were no sector boundary errors.




More information about the bittorrent mailing list