[bittorrent] gd81-03-09.sbd.miller.74220.sbeok.flac16

Automated Mailer noreply-bt.e at etree.org
Fri Jul 17 08:52:31 MDT 2009


Band:           Grateful Dead
Torrent Name:   gd81-03-09.sbd.miller.74220.sbeok.flac16
Uploaded by:    WHARFRAT73
DB Link:        http://db.etree.org/shn/74220
Details:        http://bt.etree.org/details.php?id=526769

Contact the seeder at http://db.etree.org/WHARFRAT73

If the link to this show does not work, it was probably removed for
being non-trade-friendly.

Description / text file:
-------------------------
Grateful Dead - March 9, 1981
Madison Square Garden - New York, NY

Recording Info:
SBD -> Cassette Master -> Dat (44.1k)

Transfer Info:
Dat (Sony D8) -> VX Pocket 440 -> Sony Vaio C1VP -> 
Samplitude Professional v7.02 -> FLAC

All Transfers and Mastering By Charlie Miller
charliemiller87 at earthlink.net
July 4, 2006

Patch Info:
(FOB/17th Row) Nak 700 -> Cassette Master -> Dat -> CD (Taped By Barry Glassberg)
Estimated Prophet patched from 9:41 - 10:02
Stella Blue patched from 4:52 - 5:16
U.S. Blues patched from 0:00 - 0:05

Notes:
-- Seamless transition between Discs 2 and 3
-- I adjusted the pitch of the patch to match the sbd
-- Slight "Wheel" tease before Good Lovin'

Set 1:
d1t01 - Feel Like A Stranger
d1t02 - Althea ->
d1t03 - C.C. Rider
d1t04 - Ramble On Rose ->
d1t05 - El Paso
d1t06 - Deep Elem Blues
d1t07 - Beat It On Down The Line
d1t08 - Bird Song
d1t09 - Minglewood Blues

Set 2:
d2t01 - China Cat Sunflower ->
d2t02 - I Know You Rider ->
d2t03 - Samson And Delilah
d2t04 - Ship Of Fools
d3t01 - Estimated Prophet ->
d3t02 - Uncle John's Band ->
d3t03 - Drums ->
d3t04 - Space ->
d3t05 - The Other One ->
d3t06 - Stella Blue ->
d3t07 - Good Lovin'

Encore:
d3t08 - U.S. Blues


SHNTOOL OUTPUT:
    length     expanded size   cdr  WAVE problems filename
     8:59.20       95126684    ---   --   -----   gd81-03-09d1t01.wav
     7:55.61       83933516    ---   --   -----   gd81-03-09d1t02.wav
     7:50.66       83063276    ---   --   -----   gd81-03-09d1t03.wav
     7:44.72       82018988    ---   --   -----   gd81-03-09d1t04.wav
     5:14.25       55448444    ---   --   -----   gd81-03-09d1t05.wav
     6:44.66       71420876    ---   --   -----   gd81-03-09d1t06.wav
     3:34.20       37796684    ---   --   -----   gd81-03-09d1t07.wav
    11:20.71      120119036    ---   --   -----   gd81-03-09d1t08.wav
     7:03.66       74772476    ---   --   -----   gd81-03-09d1t09.wav
     9:06.27       96377948    ---   --   -----   gd81-03-09d2t01.wav
     6:43.10       71112764    ---   --   -----   gd81-03-09d2t02.wav
     7:25.25       78556844    ---   --   -----   gd81-03-09d2t03.wav
     8:47.15       92998124    ---   --   -----   gd81-03-09d2t04.wav
    14:06.52      149356748    ---   --   -----   gd81-03-09d3t01.wav
    11:52.02      125601548    ---   --   -----   gd81-03-09d3t02.wav
    10:39.16      112757276    ---   --   -----   gd81-03-09d3t03.wav
     6:51.68       72660380    ---   --   -----   gd81-03-09d3t04.wav
     8:33.51       90613196    ---   --   -----   gd81-03-09d3t05.wav
     9:53.45      104711084    ---   --   -----   gd81-03-09d3t06.wav
     6:49.66       72302876    ---   --   -----   gd81-03-09d3t07.wav
     5:24.60       57294764    ---   --   -----   gd81-03-09d3t08.wav
   172:43.04     1828043532 B                     (totals for 21 files)




More information about the bittorrent mailing list