[bittorrent] Old Dog Smith's Olde Bar Atlanta, Georgia 7/15/2009

Automated Mailer noreply-bt.e at etree.org
Thu Jul 16 11:01:38 MDT 2009


Band:           Other
Torrent Name:   Old Dog Smith's Olde Bar Atlanta, Georgia 7/15/2009
Uploaded by:    zmanatl
DB Link:        
Details:        http://bt.etree.org/details.php?id=526745

Contact the seeder at http://db.etree.org/zmanatl

If the link to this show does not work, it was probably removed for
being non-trade-friendly.

Description / text file:
-------------------------
Old Dog
Smith's Olde Bar
Atlanta, Georgia
7/15/2009

Source: Schoeps CCM4V'S(din)>Lunatec V2>Benchmark AD2K>
Sound Devices 722 (24/48) 
Location: FOB/DFC/KFC/ZFC/AARP 14' From Stage, 7' High
DSP: Sound Devices 722>Sound Forge 9.0>CD Wave>flac(16)
Recorded By: Z-Man
Seeded By: Z-Man
  
Disc I 

01 Highway 82
02 The River
03 Not Quite A Million
04 Time Doesn't Wait
05 Hard Day For Saturday
06 Summer Thing
07 Life Is Good
08 Rocket Man
Soundcheck:
09 Time Doesn't Wait
10 Hard Day For Saturday

Flac fingerprint 

olddog2009-07-15d01t01.flac:3240c92f727ece4331066111a247744d
olddog2009-07-15d01t02.flac:a513e44e2c536060002bb56fc78409e6
olddog2009-07-15d01t03.flac:b7e181b988a19981df4a4747f45f5999
olddog2009-07-15d01t04.flac:2579a415a89eaeda51a52c1c71db9728
olddog2009-07-15d01t05.flac:41662b6130bbd3b449ca23e46841ec35
olddog2009-07-15d01t06.flac:e73c3c63a616e38b3ec7625b72bad55b
olddog2009-07-15d01t07.flac:d0e3fcb3cbb6f3c0755352b1352c30cc
olddog2009-07-15d01t08.flac:956a7922a2e51117e8d66465a81dc255
olddog2009-07-15d01t09.flac:26349fc7e7582101bd48d6537dd4c9a0
olddog2009-07-15d01t10.flac:afb0f20bb5dcc9d5e81c5962debc3be9
 
shntool 

    length     expanded size    cdr  WAVE problems  fmt   ratio  filename
     5:18.03       56102300 B   ---   --   ---xx   flac  0.4628  olddog2009-07-15d01t01.flac
     5:24.71       57320636 B   ---   --   ---xx   flac  0.4184  olddog2009-07-15d01t02.flac
     3:46.44       39969932 B   ---   --   ---xx   flac  0.5281  olddog2009-07-15d01t03.flac
     4:14.65       44958524 B   ---   --   ---xx   flac  0.4820  olddog2009-07-15d01t04.flac
     5:24.23       57207740 B   ---   --   ---xx   flac  0.5393  olddog2009-07-15d01t05.flac
     5:33.54       58868252 B   ---   --   ---xx   flac  0.4966  olddog2009-07-15d01t06.flac
     4:26.61       47065916 B   ---   --   ---xx   flac  0.5481  olddog2009-07-15d01t07.flac
     6:44.38       71355020 B   ---   --   ---xx   flac  0.5545  olddog2009-07-15d01t08.flac
     2:02.06       21534956 B   ---   --   ---xx   flac  0.4652  olddog2009-07-15d01t09.flac
     2:25.35       25660364 B   ---   --   ---xx   flac  0.5294  olddog2009-07-15d01t10.flac
    45:21.25      480043640 B                            0.5037  (10 files)








More information about the bittorrent mailing list