[bittorrent] Outformation Smith's Olde Bar Atlanta, Georia 7/15/2009

Automated Mailer noreply-bt.e at etree.org
Thu Jul 16 01:31:30 MDT 2009


Band:           Outformation
Torrent Name:   Outformation Smith's Olde Bar Atlanta, Georia 7/15/2009
Uploaded by:    zmanatl
DB Link:        
Details:        http://bt.etree.org/details.php?id=526734

Contact the seeder at http://db.etree.org/zmanatl

If the link to this show does not work, it was probably removed for
being non-trade-friendly.

Description / text file:
-------------------------
Outformation
Smith's Olde Bar
Atlanta, Georgia
7/15/2009

Source: Schoeps CCM4V'S(din)>Lunatec V2>Benchmark AD2K>
Sound Devices 722 (24/48) 
Location: FOB/DFC/KFC/ZFC/AARP 14' From Stage, 7' High
DSP: Sound Devices 722>Sound Forge 9.0>CD Wave>flac(16)
Recorded By: Z-Man
Seeded By: Z-Man
  
Disc I 

01 Fast Burn
02 Game On >
03 Edgewater
04 On Yer Mind
05 American Spirit >
06 Check Me Out Cheeseburger >
07 Titles >
08 Chicken Pickin' >
19 Camper Jam >
10 Titles 
11 One More Time
12 *Burned Faceless >
13 *Long Hard Ride 

* With Lee Haraway On Pedal Steel Guitar

Flac fingerprint 

outformation2009-07-15d01t01.flac:38d2f1a38afb3746e46f63e153932904
outformation2009-07-15d01t02.flac:3f5a549f506490cefe9f41e184c135d6
outformation2009-07-15d01t03.flac:64eef5a02294a31cf107274cd4f06fff
outformation2009-07-15d01t04.flac:ca0797054a6382830d41681ac7c42f0e
outformation2009-07-15d01t05.flac:87b4f75704d4d2d7afdae11902e48dac
outformation2009-07-15d01t06.flac:6e2c76d5cebbd04ecdc29b0e86a47c4d
outformation2009-07-15d01t07.flac:39a31a09e05ee30c263541f228d4fc68
outformation2009-07-15d01t08.flac:e1b48f63b7c013aafc59a26f3d2b2381
outformation2009-07-15d01t09.flac:e956363277a4a7394064ebdcb4600a22
outformation2009-07-15d01t10.flac:df74698ca2b04069d76f3499fff894ef
outformation2009-07-15d01t11.flac:38d82e54da1310f3603aad7d151f006f
outformation2009-07-15d01t12.flac:22497b0e1dba402c307dd37a00026122
outformation2009-07-15d01t13.flac:b7bd396831a0bafb8c7fafd2d116f2ca

shntool 

    length     expanded size    cdr  WAVE problems  fmt   ratio  filename
     9:58.18      105529580 B   ---   --   ---xx   flac  0.5407  outformation2009-07-15d01t01.flac
     4:15.56       45113756 B   ---   --   ---xx   flac  0.5903  outformation2009-07-15d01t02.flac
     6:05.30       64456604 B   ---   --   ---xx   flac  0.5464  outformation2009-07-15d01t03.flac
     6:21.44       67311932 B   ---   --   ---xx   flac  0.5432  outformation2009-07-15d01t04.flac
     7:05.53       75094700 B   ---   --   ---xx   flac  0.5838  outformation2009-07-15d01t05.flac
     7:56.12       83994668 B   ---   --   ---xx   flac  0.5755  outformation2009-07-15d01t06.flac
     6:36.50       69972044 B   ---   --   ---xx   flac  0.6116  outformation2009-07-15d01t07.flac
     5:09.31       54580556 B   ---   --   ---xx   flac  0.5605  outformation2009-07-15d01t08.flac
     2:37.50       27812444 B   ---   --   ---xx   flac  0.5965  outformation2009-07-15d01t09.flac
     1:50.21       19453436 B   ---   --   ---xx   flac  0.4627  outformation2009-07-15d01t10.flac
     6:33.63       69473420 B   ---   --   ---xx   flac  0.5183  outformation2009-07-15d01t11.flac
     6:52.37       72763868 B   ---   --   ---xx   flac  0.5532  outformation2009-07-15d01t12.flac
     6:41.17       70776428 B   ---   --   ---xx   flac  0.5758  outformation2009-07-15d01t13.flac
    78:04.32      826333436 B                            0.5611  (13 files)







More information about the bittorrent mailing list