[bittorrent] Dead Confederate Forecastle Festival Louisville, Kentuckey 7/11/2009

Automated Mailer noreply-bt.e at etree.org
Tue Jul 14 15:59:05 MDT 2009


Band:           Other
Torrent Name:   Dead Confederate Forecastle Festival Louisville, Kentuckey 7/11/2009
Uploaded by:    zmanatl
DB Link:        
Details:        http://bt.etree.org/details.php?id=526682

Contact the seeder at http://db.etree.org/zmanatl

If the link to this show does not work, it was probably removed for
being non-trade-friendly.

Description / text file:
-------------------------
Dead Confederate
Forecastle Festival
Louisville, Kentucky
7/11/2009

Source: Schoeps CCM4V'S(din)>Lunatec V2>Benchmark AD2K>
Sound Devices 722 (24/48) 
Location: FOB/DFC/KFC/ZFC/AARP 64' From Stage, 7' High
DSP: Sound Devices 722>Sound Forge 9.0>CD Wave>flac(16)
Recorded By: Z-Man
Seeded By: Z-Man
  
Disc I 

01 
02 
03 >
04 
05 
06 
07 
08 Tortured Artist Saint Here
09 

Flac fingerprint 

deadconfederate2009-07-11d01t01.flac:ebd3053e18d5139cfc8dfe23bc9fb649
deadconfederate2009-07-11d01t02.flac:59eb472356b54aeaf9beaf4855d04d3a
deadconfederate2009-07-11d01t03.flac:82103a868ecc5c3b281b53acefe34133
deadconfederate2009-07-11d01t04.flac:ad62592f898a5f1b4f7cc2a2085d1d2c
deadconfederate2009-07-11d01t05.flac:4c77c61feb73026ffde22555e1c6ccd6
deadconfederate2009-07-11d01t06.flac:c7db9acf7986091f01f50e754addc1eb
deadconfederate2009-07-11d01t07.flac:5b87b0726bcd7878182b24a26e09a11f
deadconfederate2009-07-11d01t08.flac:77671116bbc559e5e5666b77781a1433
deadconfederate2009-07-11d01t09.flac:cd2cd5e6e31911e07626166a285da74a

shntool 

    length     expanded size    cdr  WAVE problems  fmt   ratio  filename
     5:23.15       57012524 B   ---   --   ---xx   flac  0.5297  deadconfederate2009-07-11d01t01.flac
     4:17.21       45384236 B   ---   --   ---xx   flac  0.4682  deadconfederate2009-07-11d01t02.flac
     6:13.58       65933660 B   ---   --   ---xx   flac  0.5064  deadconfederate2009-07-11d01t03.flac
     4:07.35       43653164 B   ---   --   ---xx   flac  0.5269  deadconfederate2009-07-11d01t04.flac
     5:31.08       58407260 B   ---   --   ---xx   flac  0.5111  deadconfederate2009-07-11d01t05.flac
     6:36.68       70014380 B   ---   --   ---xx   flac  0.4417  deadconfederate2009-07-11d01t06.flac
     5:54.16       62483276 B   ---   --   ---xx   flac  0.4667  deadconfederate2009-07-11d01t07.flac
     8:27.15       89470124 B   ---   --   ---xx   flac  0.4952  deadconfederate2009-07-11d01t08.flac
     5:56.23       62852540 B   ---   --   ---xx   flac  0.4877  deadconfederate2009-07-11d01t09.flac
    52:27.34      555211164 B                            0.4912  (9 files)



 






More information about the bittorrent mailing list