[bittorrent] New Mastersounds Forecastle Festival Louisville, Kentucky 7/11/2009

Automated Mailer noreply-bt.e at etree.org
Tue Jul 14 11:34:47 MDT 2009


Band:           Other
Torrent Name:   New Mastersounds Forecastle Festival Louisville, Kentucky 7/11/2009
Uploaded by:    zmanatl
DB Link:        
Details:        http://bt.etree.org/details.php?id=526672

Contact the seeder at http://db.etree.org/zmanatl

If the link to this show does not work, it was probably removed for
being non-trade-friendly.

Description / text file:
-------------------------
New Mastersounds
Forecastle Festival
Louisville, Kentucky
7/11/2009

Source: Schoeps CCM4V'S(din)>Lunatec V2>Benchmark AD2K>
Sound Devices 722 (24/48) 
Location: FOB/DFC/KFC/ZFC/AARP 64' From Stage, 7' High
DSP: Sound Devices 722>Sound Forge 9.0>CD Wave>flac(16)
Recorded By: Z-Man
Seeded By: Z-Man
  
Disc I 

01 Tuning/Banter
02 Flimsey
03 Coming Up Roses
04 Mark's Red Guitar
05 Thermal Bad
06 Six Underground
07 You've Got It All
08 Hey Fella
09 Carrot Juice
10 Soul Shine
11 San Frantico
12 One Note Blue

Flac fingerprint 

newmastersounds2009-07-11d01t01.flac:1f7508f0157b46276130282f950498dd
newmastersounds2009-07-11d01t02.flac:e807917ada81aa29d78d90698fe9e985
newmastersounds2009-07-11d01t03.flac:04abc2a21430d0574f40db7a9089f450
newmastersounds2009-07-11d01t04.flac:1296540526a29a60c3ac0f74f3d6aee4
newmastersounds2009-07-11d01t05.flac:b6c6a1eaba075c1d9875dcdf13afd2e4
newmastersounds2009-07-11d01t06.flac:941890b6ee6e7ecd1daa7b9e85b6fcf0
newmastersounds2009-07-11d01t07.flac:af3f77b925d98ebaa4e73fba1583227c
newmastersounds2009-07-11d01t08.flac:c2c90db75e66f579516f3341b1811627
newmastersounds2009-07-11d01t09.flac:34f376406aacb60dd3a479c16b88abda
newmastersounds2009-07-11d01t10.flac:cbc1700a37d8a7b4d562ba9d52c859f6
newmastersounds2009-07-11d01t11.flac:51cdc2b1e33d0d9eab139c0957e05a7a
newmastersounds2009-07-11d01t12.flac:3301b4eaa54c274905c068f20ccc8667

shntool 

    length     expanded size    cdr  WAVE problems  fmt   ratio  filename
     0:28.49        5054492 B   ---   --   ---xx   flac  0.3332  newmastersounds2009-07-11d01t01.flac
     3:28.55       36820604 B   ---   --   ---xx   flac  0.4406  newmastersounds2009-07-11d01t02.flac
     4:56.08       52233260 B   ---   --   ---xx   flac  0.4336  newmastersounds2009-07-11d01t03.flac
     5:54.36       62530316 B   ---   --   ---xx   flac  0.4280  newmastersounds2009-07-11d01t04.flac
     6:11.23       65498540 B   ---   --   ---xx   flac  0.4602  newmastersounds2009-07-11d01t05.flac
     7:46.30       82273004 B   ---   --   ---xx   flac  0.3760  newmastersounds2009-07-11d01t06.flac
     9:41.26      102549596 B   ---   --   ---xx   flac  0.4362  newmastersounds2009-07-11d01t07.flac
     7:47.20       82425884 B   ---   --   ---xx   flac  0.3947  newmastersounds2009-07-11d01t08.flac
     7:41.10       81343964 B   ---   --   ---xx   flac  0.4370  newmastersounds2009-07-11d01t09.flac
     4:09.18       43965980 B   ---   --   ---xx   flac  0.4629  newmastersounds2009-07-11d01t10.flac
     4:23.53       46517900 B   ---   --   ---xx   flac  0.4638  newmastersounds2009-07-11d01t11.flac
     8:11.65       86765324 B   ---   --   ---xx   flac  0.4122  newmastersounds2009-07-11d01t12.flac
    70:40.18      747978864 B                            0.4263  (12 files)






More information about the bittorrent mailing list