[bittorrent] Grateful Dead - 10/09/77 Denver CO CM SBD

Automated Mailer noreply-bt.e at etree.org
Tue Jul 14 09:12:12 MDT 2009


Band:           Grateful Dead
Torrent Name:   Grateful Dead - 10/09/77 Denver CO CM SBD
Uploaded by:    parabolaus
DB Link:        http://db.etree.org/lookup_show.php?shows_key=1045
Details:        http://bt.etree.org/details.php?id=526664

Contact the seeder at http://db.etree.org/parabolaus

If the link to this show does not work, it was probably removed for
being non-trade-friendly.

Description / text file:
-------------------------
Grateful Dead - October 9, 1977
McNichols Arena - Denver, CO

Recording Info:
SBD -> Master Reel -> Cassette -> Dat (48k)

Transfer Info:
Dat (Sony R500) -> Sound Devices 744T -> Samplitude Professional v9.12 -> FLAC
(2 Discs Audio / 2 Discs FLAC)

All Transfers and Mastering By Charlie Miller
charliemiller87 at earthlink.net
December 5, 2007

Notes:
-- Disc change is seamless
-- Many flaws cleaned up
-- Tape flips in Brown Eyed Women and He's Gone
-- Sounds like a beat is missing on Truckin' intro
-- Encore missing

Set 1:
d1t01 - Tuning
d1t02 - New Minglewood Blues
d1t03 - They Love Each Other
d1t04 - Cassidy
d1t05 - Dire Wolf
d1t06 - Looks Like Rain
d1t07 - Brown Eyed Women
d1t08 - Lazy Lightnin' ->
d1t09 - Supplication
d1t10 - Sugaree
d1t11 - The Music Never Stopped

Set 2:
d1t12 - Samson And Delilah
d2t01 - Scarlet Begonias ->
d2t02 - Fire On The Mountain
d2t03 - Estimated Prophet ->
d2t04 - He's Gone ->
d2t05 - Truckin' ->
d2t06 - Drums ->
d2t07 - Terrapin Station ->
d2t08 - Around And Around

Encore:
xxxxx - Casey Jones (MISSING)


SHNTOOL OUTPUT:
    length     expanded size   cdr  WAVE problems filename
     2:22.23       25102940    ---   --   -----   gd77-10-09d1t01.wav
     6:44.54       71392652    ---   --   -----   gd77-10-09d1t02.wav
     7:06.56       75278156    ---   --   -----   gd77-10-09d1t03.wav
     5:00.49       53035292    ---   --   -----   gd77-10-09d1t04.wav
     3:49.22       40447388    ---   --   -----   gd77-10-09d1t05.wav
     8:01.02       84853148    ---   --   -----   gd77-10-09d1t06.wav
     5:39.31       59872556    ---   --   -----   gd77-10-09d1t07.wav
     3:16.02       34579148    ---   --   -----   gd77-10-09d1t08.wav
     4:12.62       44598668    ---   --   -----   gd77-10-09d1t09.wav
    14:34.53      154298300    ---   --   -----   gd77-10-09d1t10.wav
     7:46.19       82247132    ---   --   -----   gd77-10-09d1t11.wav
     7:07.67       75480428    ---   --   -----   gd77-10-09d1t12.wav
    10:52.49      115128092    ---   --   -----   gd77-10-09d2t01.wav
    10:20.33      109445660    ---   --   -----   gd77-10-09d2t02.wav
     9:33.69      101239532    ---   --   -----   gd77-10-09d2t03.wav
    10:46.54      114081452    ---   --   -----   gd77-10-09d2t04.wav
     8:52.32       93920108    ---   --   -----   gd77-10-09d2t05.wav
     6:27.04       68276252    ---   --   -----   gd77-10-09d2t06.wav
    10:45.38      113867420    ---   --   -----   gd77-10-09d2t07.wav
     8:16.20       87541484    ---   --   -----   gd77-10-09d2t08.wav
   151:36.64     1604685808 B                     (totals for 20 files)



More information about the bittorrent mailing list