[bittorrent] Yonder Mountain String Band Forecastle Festival Louisville, Kentucky 7/12/2009

Automated Mailer noreply-bt.e at etree.org
Mon Jul 13 20:58:47 MDT 2009


Band:           Yonder Mountain String Band
Torrent Name:   Yonder Mountain String Band Forecastle Festival Louisville, Kentucky 7/12/2009
Uploaded by:    zmanatl
DB Link:        
Details:        http://bt.etree.org/details.php?id=526653

Contact the seeder at http://db.etree.org/zmanatl

If the link to this show does not work, it was probably removed for
being non-trade-friendly.

Description / text file:
-------------------------
Yonder Mountain String Band
Forecastle Festival
Louisville, Kentucky
7/12/2009

Source: Schoeps CCM4V'S(din)>Lunatec V2>Benchmark AD2K>
Sound Devices 722 (24/48) 
Location: FOB/DFC/KFC/ZFC/AARP 42' From Stage, 7' High
DSP: Sound Devices 722>Sound Forge 9.0>CD Wave>flac(16)
Recorded By: Z-Man
Seeded By: Z-Man
  
Disc I

01 Greetings/Tuning
02 Jam >
03 Ramblin' In he Rambler
04 Death Trip Baby
05 Banter By Jeff
06 My Gal
07 Deep Pockets
08 Wonder Why I Love You Like I Do
09 Out Of The Blue
10 Damn If The Right One Didn't Go Wrong
11 Rain Still Falls
12 Lord Only Knows >
13 ?
14 Holding
15 Ramblin' In The Rambler

Flac fingerprint 

ymsb2009-07-12d01t01.flac:ba282f0c9df81bc22cbfa6bf4eb36418
ymsb2009-07-12d01t02.flac:e34739c9dd2205d63946e8a0f2168ad7
ymsb2009-07-12d01t03.flac:09780ff6279152815a194d03b45df5a9
ymsb2009-07-12d01t04.flac:46ea9e07d609a08da89ae49b61b023c7
ymsb2009-07-12d01t05.flac:bbb12ab7ac0101a98c45c6045855ac11
ymsb2009-07-12d01t06.flac:8228f2eb9c7610ff2064a7edcb687b9c
ymsb2009-07-12d01t07.flac:7c993c62b584544511191541db426326
ymsb2009-07-12d01t08.flac:ae4b32d4ff9ea9eea7055205f7b48a35
ymsb2009-07-12d01t09.flac:13ace66f636fa57da214a379af4d45c4
ymsb2009-07-12d01t10.flac:af4aa360d7db1578311716147e2baf73
ymsb2009-07-12d01t11.flac:16a7668fca4fdd534e535460ff0ad299
ymsb2009-07-12d01t12.flac:d6d9cbabc9282d7590098d56b3e56968
ymsb2009-07-12d01t13.flac:c9c8d629974e31a2d25af004602832cb
ymsb2009-07-12d01t14.flac:ef8e0e97225e8a4327953a95dc41a11a
ymsb2009-07-12d01t15.flac:589869e1576d840257f28951b40f9ffb

shntool 

    length     expanded size    cdr  WAVE problems  fmt   ratio  filename
     2:20.68       24855980 B   ---   --   ---xx   flac  0.3549  ymsb2009-07-12d01t01.flac
     1:28.39       15614972 B   ---   --   ---xx   flac  0.4459  ymsb2009-07-12d01t02.flac
     1:44.49       18460892 B   ---   --   ---xx   flac  0.4515  ymsb2009-07-12d01t03.flac
     6:27.17       68306828 B   ---   --   ---xx   flac  0.5370  ymsb2009-07-12d01t04.flac
     2:04.23       21927740 B   ---   --   ---xx   flac  0.4000  ymsb2009-07-12d01t05.flac
     8:34.55       90799004 B   ---   --   ---xx   flac  0.4635  ymsb2009-07-12d01t06.flac
     5:47.29       61279052 B   ---   --   ---xx   flac  0.4611  ymsb2009-07-12d01t07.flac
     3:20.23       35334140 B   ---   --   ---xx   flac  0.4487  ymsb2009-07-12d01t08.flac
     6:31.04       68981852 B   ---   --   ---xx   flac  0.4771  ymsb2009-07-12d01t09.flac
     4:23.53       46517900 B   ---   --   ---xx   flac  0.4911  ymsb2009-07-12d01t10.flac
     4:17.47       45445388 B   ---   --   ---xx   flac  0.4617  ymsb2009-07-12d01t11.flac
     2:29.44       26387132 B   ---   --   ---xx   flac  0.5106  ymsb2009-07-12d01t12.flac
    11:02.58      116913260 B   ---   --   ---xx   flac  0.4894  ymsb2009-07-12d01t13.flac
     5:06.36       54063116 B   ---   --   ---xx   flac  0.4887  ymsb2009-07-12d01t14.flac
     2:24.10       25425164 B   ---   --   ---xx   flac  0.4896  ymsb2009-07-12d01t15.flac
    68:03.30      720312420 B                            0.4749  (15 files)



  



More information about the bittorrent mailing list