[bittorrent] Phish 07/25/1993 Waterloo Village Music Center, Stanhope, NJ *Project 93prise*

Automated Mailer noreply-bt.e at etree.org
Sun Jul 12 21:39:21 MDT 2009


Band:           Phish
Torrent Name:   Phish 07/25/1993 Waterloo Village Music Center, Stanhope, NJ *Project 93prise* 
Uploaded by:    TheIguana
DB Link:        http://db.etree.org/shn/89294
Details:        http://bt.etree.org/details.php?id=526617

Contact the seeder at http://db.etree.org/TheIguana

If the link to this show does not work, it was probably removed for
being non-trade-friendly.

Description / text file:
-------------------------
Phish
July 25, 1993
Waterloo Village
Stanhope, NJ

source:
(FOB) Schoeps mk21 > kc5 > cmc5 > Sonosax SX-M2 > Sony D10 Pro II (@ 48 kHz)

transfer:
Tascam DA-20MKII > Tascam HD-P2 > CF card > usb 2.0 > pc > WaveLab 5.01b (de-emphasis, resample to 44.1 kHz, fades) > CD Wave v1.96.1 > FLAC v1.2.1 (Level 8)

FLAC tags added with metaflac v1.2.1

taped by Eliot Byron
transferred by Jason Sobel (jasonsobel at gmail.com)
seeded January 1, 2008

notes:
The original DAT recording was made with pre-emphasis.
The Waves Q10 Paragraphic EQ (v5.0) plug-in was used to de-emphasize the recording.
The original 48 kHz .wav files from the DAT transfer have been archived, and are available upon request.
Big thanks to Eliot for letting me borrow the master DATs!

Disc 1 - [63:27]
Set I
01 - [05:40] - Wilson ->
02 - [08:51] - Foam
03 - [05:46] - Mound
04 - [10:14] - Stash
05 - [05:03] - Fee >
06 - [05:54] - Rift
07 - [03:43] - The Sloth
08 - [02:23] - My Mind's Got a Mind of its Own
09 - [03:03] - I Didn't Know
10 - [12:51] - David Bowie

Disc 2 - [58:00]
Set II
01 - [04:04] - 2001 >
02 - [05:15] - Suzy Greenberg
03 - [10:14] - Tweezer ->
04 - [02:17] - The Horse >
05 - [04:55] - Silent in the Morning
06 - [09:58] - Maze
07 - [10:21] - The Lizards
08 - [02:39] - Big Ball Jam
09 - [06:17] - Purple Rain
10 - [02:02] - HYHU

Disc 3 - [23:02]
Set II continued
01 - [14:18] - Harpua ->
02 - [02:48] - Tweezer Reprise
03 - [01:31] - encore break
04 - [04:26] - Cavern

show notes:
Wilson contained "Jeopardy" theme teases and the Simpsons Signal.
Sounds of Silence and Donna Lee were quoted in Bowie, which also included an Oom Pa Pa Signal.
Harpua included a tease of the theme to Taxi.

------------------------------------------------------------------------------------------------

SHNtool output:

    length     expanded size   cdr  WAVE problems filename
     5:40.09       59997212    ---   --   ---xx   ph1993-07-25d1t01.flac
     8:51.27       93731948    ---   --   ---xx   ph1993-07-25d1t02.flac
     5:45.52       60980348    ---   --   ---xx   ph1993-07-25d1t03.flac
    10:13.60      108274364    ---   --   ---xx   ph1993-07-25d1t04.flac
     5:02.40       53366924    ---   --   ---xx   ph1993-07-25d1t05.flac
     5:54.23       62499740    ---   --   ---xx   ph1993-07-25d1t06.flac
     3:42.63       39309020    ---   --   ---xx   ph1993-07-25d1t07.flac
     2:22.43       25149980    ---   --   ---xx   ph1993-07-25d1t08.flac
     3:03.18       32323580    ---   --   ---xx   ph1993-07-25d1t09.flac
    12:50.40      135922124    ---   --   ---xx   ph1993-07-25d1t10.flac
     4:04.03       43048700    ---   --   ---xx   ph1993-07-25d2t01.flac
     5:14.52       55511948    ---   --   ---xx   ph1993-07-25d2t02.flac
    10:13.40      108227324    ---   --   ---xx   ph1993-07-25d2t03.flac
     2:16.39       24082172    ---   --   ---xx   ph1993-07-25d2t04.flac
     4:55.06       52052156    ---   --   ---xx   ph1993-07-25d2t05.flac
     9:58.01      105489596    ---   --   ---xx   ph1993-07-25d2t06.flac
    10:20.44      109471532    ---   --   ---xx   ph1993-07-25d2t07.flac
     2:38.53       27995900    ---   --   ---xx   ph1993-07-25d2t08.flac
     6:16.54       66453452    ---   --   ---xx   ph1993-07-25d2t09.flac
     2:01.61       21487916    ---   --   ---xx   ph1993-07-25d2t10.flac
    14:17.68      151334780    ---   --   ---xx   ph1993-07-25d3t01.flac
     2:48.09       29656412    ---   --   ---xx   ph1993-07-25d3t02.flac
     1:30.42       15974828    ---   --   ---xx   ph1993-07-25d3t03.flac
     4:25.53       46870700    ---   --   ---xx   ph1993-07-25d3t04.flac
   144:29.00     1529212656 B                     (totals for 24 files, 0.4412 overall compression ratio)



More information about the bittorrent mailing list