[bittorrent] Black Crowes Forecastle Festival Louisville, Kentucky 7/11/2009

Automated Mailer noreply-bt.e at etree.org
Sun Jul 12 08:20:12 MDT 2009


Band:           Black Crowes
Torrent Name:   Black Crowes Forecastle Festival Louisville, Kentucky 7/11/2009
Uploaded by:    zmanatl
DB Link:        
Details:        http://bt.etree.org/details.php?id=526593

Contact the seeder at http://db.etree.org/zmanatl

If the link to this show does not work, it was probably removed for
being non-trade-friendly.

Description / text file:
-------------------------
Black Crowes
Forecastle Festival
Louisville, Kentucky
7/11/2009

Source: Schoeps CCM4V'S(din)>Lunatec V2>Benchmark AD2K>
Sound Devices 722 (24/48) 
Location: FOB/DFC/KFC/ZFC/AARP 42' From Stage, 6 1/2' High
DSP: Sound Devices 722>Sound Forge 9.0>CD Wave>flac(16)
Recorded By: Z-Man
Seeded By: Z-Man
  
Disc I 

01 Introduction By Marion Dries of WFPK
02 Halfway To Everywhere
03 Evergreen
04 High Head Blues 
05 Ozone Mama 
06 ?

Disc II 

01 Wee Who See The Deep
02 Thorn In My Pride >
03 Drum Solo >
04 Jam >
05 Thorn In My Pride
06 Poor Elijah 
07 Jealous Again
08 Move It On Down The Line

Flac fingerprint 

blackcrowes2009-07-11d01t01.flac:a7708f94e343a3ed6032a7b33fea13ab
blackcrowes2009-07-11d01t02.flac:9697e4ec61df5ac1030c4bccad9bc73f
blackcrowes2009-07-11d01t03.flac:02d046a315a06360b9b5b3b59446b764
blackcrowes2009-07-11d01t04.flac:884fe77d48cb14ef6d9979d2a9c5607d
blackcrowes2009-07-11d01t05.flac:4b8f00d3fd923566a9ffa0eb0f01550c
blackcrowes2009-07-11d01t06.flac:91486c56f1805fcb9239c99eb97aab37
blackcrowes2009-07-11d02t01.flac:c2d0e7753b12267186fd3c91b7888156
blackcrowes2009-07-11d02t02.flac:21eb21874ef77de9592ea9ca1e626f75
blackcrowes2009-07-11d02t03.flac:576863a77d1574161f87ef5f44eb8c3e
blackcrowes2009-07-11d02t04.flac:82fc71f1e595ed9608f2e67b05dba910
blackcrowes2009-07-11d02t05.flac:54f9c43ec327f9681e6383022f7440b8
blackcrowes2009-07-11d02t06.flac:646df7172e8c5050c31830f97cb96305
blackcrowes2009-07-11d02t07.flac:15c06fd9a419f8aeb42957f397de5b5d
blackcrowes2009-07-11d02t08.flac:df2ff4c7917e8eda45a3ccb74c8b52fb

shntool 

    length     expanded size    cdr  WAVE problems  fmt   ratio  filename
     2:11.60       23249564 B   ---   --   ---xx   flac  0.3738  blackcrowes2009-07-11d01t01.flac
     9:28.36      100279916 B   ---   --   ---xx   flac  0.5519  blackcrowes2009-07-11d01t02.flac
     4:45.23       50328140 B   ---   --   ---xx   flac  0.4870  blackcrowes2009-07-11d01t03.flac
     6:53.47       72963788 B   ---   --   ---xx   flac  0.4813  blackcrowes2009-07-11d01t04.flac
     6:47.22       71846588 B   ---   --   ---xx   flac  0.4933  blackcrowes2009-07-11d01t05.flac
     6:00.58       63640460 B   ---   --   ---xx   flac  0.4934  blackcrowes2009-07-11d01t06.flac
    13:32.51      143356796 B   ---   --   ---xx   flac  0.4783  blackcrowes2009-07-11d02t01.flac
     5:50.36       61824716 B   ---   --   ---xx   flac  0.4944  blackcrowes2009-07-11d02t02.flac
     1:21.14       14321372 B   ---   --   ---xx   flac  0.4840  blackcrowes2009-07-11d02t03.flac
     3:51.22       40800188 B   ---   --   ---xx   flac  0.5205  blackcrowes2009-07-11d02t04.flac
     2:44.57       29063708 B   ---   --   ---xx   flac  0.4871  blackcrowes2009-07-11d02t05.flac
    10:29.63      111103820 B   ---   --   ---xx   flac  0.4829  blackcrowes2009-07-11d02t06.flac
     5:06.06       53992556 B   ---   --   ---xx   flac  0.5072  blackcrowes2009-07-11d02t07.flac
     8:11.45       86718284 B   ---   --   ---xx   flac  0.4846  blackcrowes2009-07-11d02t08.flac
    87:15.15      923489896 B                            0.4927  (14 files)








 



More information about the bittorrent mailing list