[bittorrent] Widespread Panic Forecastle Festival Louisville, Kentucky 7/11/2009

Automated Mailer noreply-bt.e at etree.org
Sun Jul 12 01:15:57 MDT 2009


Band:           Widespread Panic
Torrent Name:   Widespread Panic Forecastle Festival Louisville, Kentucky 7/11/2009
Uploaded by:    zmanatl
DB Link:        
Details:        http://bt.etree.org/details.php?id=526584

Contact the seeder at http://db.etree.org/zmanatl

If the link to this show does not work, it was probably removed for
being non-trade-friendly.

Description / text file:
-------------------------
Widespread Panic
Forecastle Festival
Louisville, Kentucky
7/11/2009

Source: Schoeps CCM4V'S(din)>Lunatec V2>Benchmark AD2K>
Sound Devices 722 (24/48) 
Location: FOB/DFC/KFC/ZFC/AARP 42' From Stage, 6 1/2' High
DSP: Sound Devices 722>Sound Forge 9.0>CD Wave>flac(16)
Recorded By: Z-Man
Seeded By: Z-Man
  
Disc I 1st Set

01 Tuning
02 Disco >
03 Pigeons
04 This Part Of Town
05 Holden Ovrsoul >
06 Climb To Safety 
07 From The Cradle >
08 All Time Low 
09 Papa's Home >
10 Protein Drink >
11 Sewing Machine >
12 Jam >
13 Papa's Home >
14 Rock

Disc II 2nd Set

01 Jam >
02 Her Dance Needs No Body >
03 Henry Parson's Died 
04 Angels On High >
05 Greta >
06 Jam >
07 Drum Solo >

Disc III 2nd Set Con't 

01 Bowl Legged Woman >
02 Chilly Water >
03 Bowl Legged Woman >
04 Time Waits For No One >
05 Ain't Life Grand >
06 Love Tractor
Encore:
07 Thanks
08 Action Man

Flac fingerprint 

wsp2009-07-11d01t01.flac:af0447261a022c8c3afd4290697be768
wsp2009-07-11d01t02.flac:4f38fe9e2b7b6b0dc4707950b5c0ee35
wsp2009-07-11d01t03.flac:448cbe5a7edad9ab58379914b4f09081
wsp2009-07-11d01t04.flac:6946d9ed75a41a4f4ed2afc526b7e59b
wsp2009-07-11d01t05.flac:82e460bf1a52174aa0a3526558ed6e26
wsp2009-07-11d01t06.flac:327af2623500317a22c391939846ac98
wsp2009-07-11d01t07.flac:a0f13a25d15bd12fb6c2e5a665b9c74a
wsp2009-07-11d01t08.flac:6ed0d7537025afc6a2e32b75054d0368
wsp2009-07-11d01t09.flac:628edb6b9f190870fa93b797fe34c5b8
wsp2009-07-11d01t10.flac:d57a82a4578cdfebae0c51eb6aea9c1b
wsp2009-07-11d01t11.flac:801b359347ff45f318fb66c55370d7ef
wsp2009-07-11d01t12.flac:4136a6d6e0aca3feae6091ced17e07e9
wsp2009-07-11d01t13.flac:ddc651fedfd156331522ddf91977db7e
wsp2009-07-11d01t14.flac:4e729d65200dd65d4c5a71cd5e51c79e
wsp2009-07-11d02t01.flac:24bbb37f3761b7bdbea40a9d9543e078
wsp2009-07-11d02t02.flac:6277e8ec5cee9e145325c83e54d31688
wsp2009-07-11d02t03.flac:ee70b244b611609add77e8bbe62a3026
wsp2009-07-11d02t04.flac:165d580d434a721f16906909409fa33a
wsp2009-07-11d02t05.flac:49670cde304cefd319ab5c19209ca174
wsp2009-07-11d02t06.flac:de4d86b0765c539cef876d65d7f62a08
wsp2009-07-11d02t07.flac:ed974425462388f1781b1915644a1ad9
wsp2009-07-11d03t01.flac:637143d76a606ee2a162832f56cced67
wsp2009-07-11d03t02.flac:1909d084296c092d1af462702c2e8a37
wsp2009-07-11d03t03.flac:9b118ac604ae49ba3273af904fed7bff
wsp2009-07-11d03t04.flac:045ee12572330b738865db9001710fe9
wsp2009-07-11d03t05.flac:f619a2abdc5e6be450518981aebc24c1
wsp2009-07-11d03t06.flac:dc92d33bef51b6fa63788a82944fe553
wsp2009-07-11d03t07.flac:fb860fad6b4ba1ea5a0774909f76e84f
wsp2009-07-11d03t08.flac:fde91d1713e10c5c3bdbbef794c58b0d

shntool 

    length     expanded size    cdr  WAVE problems  fmt   ratio  filename
     1:09.00       12171644 B   ---   --   ---xx   flac  0.4167  wsp2009-07-11d01t01.flac
     4:58.06       52581356 B   ---   --   ---xx   flac  0.4974  wsp2009-07-11d01t02.flac
     9:06.17       96354428 B   ---   --   ---xx   flac  0.4830  wsp2009-07-11d01t03.flac
     5:17.34       55998812 B   ---   --   ---xx   flac  0.4588  wsp2009-07-11d01t04.flac
     8:17.14       87703772 B   ---   --   ---xx   flac  0.4798  wsp2009-07-11d01t05.flac
     7:04.55       74923004 B   ---   --   ---xx   flac  0.4932  wsp2009-07-11d01t06.flac
     4:29.25       47510444 B   ---   --   ---xx   flac  0.4846  wsp2009-07-11d01t07.flac
     4:20.20       45911084 B   ---   --   ---xx   flac  0.5101  wsp2009-07-11d01t08.flac
    11:52.46      125705036 B   ---   --   ---xx   flac  0.4530  wsp2009-07-11d01t09.flac
     4:55.48       52150940 B   ---   --   ---xx   flac  0.4789  wsp2009-07-11d01t10.flac
     5:30.44       58315532 B   ---   --   ---xx   flac  0.5140  wsp2009-07-11d01t11.flac
     2:05.38       22139420 B   ---   --   ---xx   flac  0.4469  wsp2009-07-11d01t12.flac
     1:20.24       14168492 B   ---   --   ---xx   flac  0.4797  wsp2009-07-11d01t13.flac
     8:48.60       93280364 B   ---   --   ---xx   flac  0.4553  wsp2009-07-11d01t14.flac
     1:57.04       20648252 B   ---   --   ---xx   flac  0.3537  wsp2009-07-11d02t01.flac
     8:44.25       92492444 B   ---   --   ---xx   flac  0.4485  wsp2009-07-11d02t02.flac
     9:05.46       96246236 B   ---   --   ---xx   flac  0.4999  wsp2009-07-11d02t03.flac
     6:57.06       73572956 B   ---   --   ---xx   flac  0.4654  wsp2009-07-11d02t04.flac
     7:12.45       76310684 B   ---   --   ---xx   flac  0.5088  wsp2009-07-11d02t05.flac
     3:14.29       34289852 B   ---   --   ---xx   flac  0.5034  wsp2009-07-11d02t06.flac
     6:07.29       64807052 B   ---   --   ---xx   flac  0.3726  wsp2009-07-11d02t07.flac
     6:36.64       70004972 B   ---   --   ---xx   flac  0.4822  wsp2009-07-11d03t01.flac
     7:53.50       83554844 B   ---   --   ---xx   flac  0.5301  wsp2009-07-11d03t02.flac
     3:53.52       41223548 B   ---   --   ---xx   flac  0.4967  wsp2009-07-11d03t03.flac
     7:21.60       77933564 B   ---   --   ---xx   flac  0.4623  wsp2009-07-11d03t04.flac
     4:47.68       50786780 B   ---   --   ---xx   flac  0.5108  wsp2009-07-11d03t05.flac
     6:08.21       64964636 B   ---   --   ---xx   flac  0.5272  wsp2009-07-11d03t06.flac
     0:34.31        6070556 B   ---   --   ---xx   flac  0.3306  wsp2009-07-11d03t07.flac
     5:16.41       55838876 B   ---   --   ---xx   flac  0.5241  wsp2009-07-11d03t08.flac
   165:07.27     1747659580 B                            0.4791  (29 files)








More information about the bittorrent mailing list