[bittorrent] Old Union Mercy Lounge Nashville, Tennessee 7/10/2009

Automated Mailer noreply-bt.e at etree.org
Sat Jul 11 11:39:29 MDT 2009


Band:           Other
Torrent Name:   Old Union Mercy Lounge Nashville, Tennessee 7/10/2009
Uploaded by:    zmanatl
DB Link:        
Details:        http://bt.etree.org/details.php?id=526562

Contact the seeder at http://db.etree.org/zmanatl

If the link to this show does not work, it was probably removed for
being non-trade-friendly.

Description / text file:
-------------------------
Old Union
Mercy Lounge
Nashville, Tennessee
7/10/2009

Source: Schoeps CCM4V'S(din)>Lunatec V2>Benchmark AD2K>
Sound Devices 722 (24/48) 
Location: FOB/DFC/KFC/ZFC/AARP 10' From Stage, 7' High
DSP: Sound Devices 722>Sound Forge 9.0>CD Wave>flac(16)
Recorded By: Z-Man
Seeded By: Z-Man
  
Disc I 

01 Breakdown >
02 Jericho >
03 ?
04 Catatrophe >
05 L.C. 
06 *I Can See Clearly Now


Disc II 

01 *Come Into My Kitchen 
02 ?
03 In My Time Of Dyin' >
04 ?
05 Sweet Freedom
06 #Goin' Down

* With Ms. Jonelle Mawson on Vocals
# With Benji Shanks On Slide Guitar

Flac fingerprint 

oldunion2009-07-10d01t01.flac:99fabde1548703e02f0f2e12eb9e249a
oldunion2009-07-10d01t02.flac:7a0966c61660c3065b7d2287acd31ea9
oldunion2009-07-10d01t03.flac:20a4ef23d0e85b4cec294b75afebc3c0
oldunion2009-07-10d01t04.flac:ebc1c3a42e4f39ddfa568d55ee1b57c2
oldunion2009-07-10d01t05.flac:68045f242b1750b860104df8e9e38726
oldunion2009-07-10d01t06.flac:e35c1f9f8382343aa49a59a89f51a467
oldunion2009-07-10d02t01.flac:7d256cb784aa67f22c2bc45dbcd5409b
oldunion2009-07-10d02t02.flac:c9af8333fd98d69ef37ed3c257eac2eb
oldunion2009-07-10d02t03.flac:05b1a1a7a3c0e563b32f6939e92e44b6
oldunion2009-07-10d02t04.flac:132abe5f1fbfc782301d4a8911044797
oldunion2009-07-10d02t05.flac:fb22d7ea91daf7aede69d47973395d24
oldunion2009-07-10d02t06.flac:9001c36a2277e8a9a7d84f838f20f8f3

shntool 

    length     expanded size    cdr  WAVE problems  fmt   ratio  filename
     7:51.37       83171468 B   ---   --   ---xx   flac  0.6054  oldunion2009-07-10d01t01.flac
     6:12.01       65623196 B   ---   --   ---xx   flac  0.6157  oldunion2009-07-10d01t02.flac
     8:47.51       93082796 B   ---   --   ---xx   flac  0.5888  oldunion2009-07-10d01t03.flac
     4:37.52       48985148 B   ---   --   ---xx   flac  0.5686  oldunion2009-07-10d01t04.flac
     9:58.28      105553100 B   ---   --   ---xx   flac  0.5771  oldunion2009-07-10d01t05.flac
     6:00.50       63621644 B   ---   --   ---xx   flac  0.6094  oldunion2009-07-10d01t06.flac
     4:48.01       50805596 B   ---   --   ---xx   flac  0.5675  oldunion2009-07-10d02t01.flac
     7:32.08       79751660 B   ---   --   ---xx   flac  0.6268  oldunion2009-07-10d02t02.flac
     8:40.03       91735100 B   ---   --   ---xx   flac  0.5794  oldunion2009-07-10d02t03.flac
     5:21.47       56734988 B   ---   --   ---xx   flac  0.6395  oldunion2009-07-10d02t04.flac
     7:20.56       77747756 B   ---   --   ---xx   flac  0.5938  oldunion2009-07-10d02t05.flac
     6:09.14       65124572 B   ---   --   ---xx   flac  0.6276  oldunion2009-07-10d02t06.flac
    83:19.48      881937024 B                            0.5991  (12 files)




More information about the bittorrent mailing list