[bittorrent] Outformation Mercy Lounge Nashville, Tennessee 7/10/2009

Automated Mailer noreply-bt.e at etree.org
Sat Jul 11 06:12:38 MDT 2009


Band:           Outformation
Torrent Name:   Outformation Mercy Lounge Nashville, Tennessee 7/10/2009 
Uploaded by:    zmanatl
DB Link:        
Details:        http://bt.etree.org/details.php?id=526556

Contact the seeder at http://db.etree.org/zmanatl

If the link to this show does not work, it was probably removed for
being non-trade-friendly.

Description / text file:
-------------------------
Outformation
Mercy Lounge
Nashville, Tennessee
7/10/2009

Source: Schoeps CCM4V'S(din)>Lunatec V2>Benchmark AD2K>
Sound Devices 722 (24/48) 
Location: FOB/DFC/KFC/ZFC/AARP 10' From Stage, 7' High
DSP: Sound Devices 722>Sound Forge 9.0>CD Wave>flac(16)
Recorded By: Z-Man
Seeded By: Z-Man
  
Disc I 1st Set

01 Jam >
02 Outstrumental >
03 One More Time >
04 Carnac
05 On Yer Mind
06 Everybody Knows
07 Eleventeen >
08 Ninety

Disc II 2nd Set

01 Moral Decline 
02 American Spirit
03 *Jam/Tuning
04 *Tennessee Before Daylight >
05 *Tina Funk >
06 *Can't Change The Past
07 Band Introductions By Benji 
08 Faded Memory
09 #@Ain't Livin' Long Like This
10 #@Will The Circle Be Unbroken
  
* With Jason Graumlach On Lap Steel
# With Johnny Z of Old Union On Guitar
@ With Chuck of Old Union On Keyboards

Flac fingerprint 

outformation2009-07-10d01t01.flac:2e28ca08cd2562fec0185efea5930c9a
outformation2009-07-10d01t02.flac:a1e5d6e2081797d08ea1bf6bfede91a9
outformation2009-07-10d01t03.flac:d6a65cb3bfcdbd19bab2a84055c3b733
outformation2009-07-10d01t04.flac:07cd010a7ce961b6800be34147289a90
outformation2009-07-10d01t05.flac:93ccdf58a2e669ff5f7102aae50ec5d1
outformation2009-07-10d01t06.flac:9600c4553bf29b0b9f7bcdc8ac827cfb
outformation2009-07-10d01t07.flac:1f8cf5f7e6bbbd6ab248b0fa12214bd4
outformation2009-07-10d01t08.flac:5ac87f08a811011d098ae10c0df0ead7
outformation2009-07-10d02t01.flac:16e843e8da3c96fd05cb07264c8bfb53
outformation2009-07-10d02t02.flac:b777b9800ca4e016960bb3ee9644eb21
outformation2009-07-10d02t03.flac:eb406eacf586fd1ae78e1626d742c429
outformation2009-07-10d02t04.flac:6535139b94ac2be1f30ec37625374c60
outformation2009-07-10d02t05.flac:f93ab8900a636b8f3937536258cf7f1d
outformation2009-07-10d02t06.flac:db35aefdc52c3099a0d2ad1b5c8a3d6f
outformation2009-07-10d02t07.flac:c3e606baf5e220a0462e02e798af28fc
outformation2009-07-10d02t08.flac:b86ec40d49c3708bb00066d153b72a6d
outformation2009-07-10d02t09.flac:231a9b443f6c40a0f6178b0d998aee12
outformation2009-07-10d02t10.flac:4034bd98f9920ac0308f8f2d7851026e

shntool 

    length     expanded size    cdr  WAVE problems  fmt   ratio  filename
     0:53.47        9459788 B   ---   --   ---xx   flac  0.5188  outformation2009-07-10d01t01.flac
     3:17.29       34819052 B   ---   --   ---xx   flac  0.5701  outformation2009-07-10d01t02.flac
     5:12.19       55081532 B   ---   --   ---xx   flac  0.5548  outformation2009-07-10d01t03.flac
    12:13.16      129338876 B   ---   --   ---xx   flac  0.5631  outformation2009-07-10d01t04.flac
     7:50.25       82966844 B   ---   --   ---xx   flac  0.5423  outformation2009-07-10d01t05.flac
     8:06.14       85763372 B   ---   --   ---xx   flac  0.5198  outformation2009-07-10d01t06.flac
     3:35.30       37996604 B   ---   --   ---xx   flac  0.5470  outformation2009-07-10d01t07.flac
    10:06.22      106950188 B   ---   --   ---xx   flac  0.5556  outformation2009-07-10d01t08.flac
     6:56.23       73436540 B   ---   --   ---xx   flac  0.4952  outformation2009-07-10d02t01.flac
     7:51.68       83244380 B   ---   --   ---xx   flac  0.5626  outformation2009-07-10d02t02.flac
     0:55.60        9843164 B   ---   --   ---xx   flac  0.3846  outformation2009-07-10d02t03.flac
     6:56.41       73478876 B   ---   --   ---xx   flac  0.5217  outformation2009-07-10d02t04.flac
     4:00.17       42376028 B   ---   --   ---xx   flac  0.5305  outformation2009-07-10d02t05.flac
     7:12.18       76247180 B   ---   --   ---xx   flac  0.5192  outformation2009-07-10d02t06.flac
     0:49.24        8700092 B   ---   --   ---xx   flac  0.3595  outformation2009-07-10d02t07.flac
     6:46.73       71790140 B   ---   --   ---xx   flac  0.5104  outformation2009-07-10d02t08.flac
     6:41.53       70861100 B   ---   --   ---xx   flac  0.5622  outformation2009-07-10d02t09.flac
     7:30.68       79539980 B   ---   --   ---xx   flac  0.5244  outformation2009-07-10d02t10.flac
   106:56.47     1131893736 B                            0.5360  (18 files)






More information about the bittorrent mailing list