[bittorrent] Black Jake and the Carnies Circus Bar Ann Arbor, Michigan 7/8/2009

Automated Mailer noreply-bt.e at etree.org
Thu Jul 9 09:18:19 MDT 2009


Band:           Other
Torrent Name:   Black Jake and the Carnies Circus Bar Ann Arbor, Michigan 7/8/2009
Uploaded by:    zmanatl
DB Link:        
Details:        http://bt.etree.org/details.php?id=526508

Contact the seeder at http://db.etree.org/zmanatl

If the link to this show does not work, it was probably removed for
being non-trade-friendly.

Description / text file:
-------------------------
Black Jake and the Carnies
The Circus Bar
Ann Arbor, Michigan
7/8/2009

Source: Schoeps CCM4V'S(din)>Lunatec V2>Benchmark AD2K>
Sound Devices 722 (24/48) 
Location: FOB/DLFC/KFC/ZFC/AARP 6' From Stage, 7' High
DSP: Sound Devices 722>Sound Forge 9.0>CD Wave>flac(16)
Recorded By: Z-Man
Seeded By: Z-Man
  
Disc I 1st Set

01 Introduction By Chris
02 Jasper Watkins
03 
04 Old Scratch Radio
05 Old East Cross Street
06 Farmer Had Him Rats
07 A Happy Easter To You
08 Styxferry County
09 ? >
10 Psycho 78
11 Banter - Baba Yaga
12 Where The Heather Don't Grow
 
Flac fingerprint 

blackjake2009-07-08d01t01.flac:6c3110ca3674968a64aa2aceac2892f3
blackjake2009-07-08d01t02.flac:d87e6de30973a3d0f4af3600df456bfe
blackjake2009-07-08d01t03.flac:05d0d7b8749af98aff221dff6a7716ca
blackjake2009-07-08d01t04.flac:5f7e7d47bb5e3be12961b8db0b591d53
blackjake2009-07-08d01t05.flac:9d8c8e82e94317b871d0dfb931a1bb2e
blackjake2009-07-08d01t06.flac:bbfa86b5906d5235b614d71c8da5bf7a
blackjake2009-07-08d01t07.flac:f3593ed80a3d114a34286612a72d96ce
blackjake2009-07-08d01t08.flac:be19e44ceee0f9c0957c139ac5ff0649
blackjake2009-07-08d01t09.flac:e4a4a30008f860f7bafb2efaf7cbb909
blackjake2009-07-08d01t10.flac:1e6c073fa7335ee8c3eceb8065e76a3b
blackjake2009-07-08d01t11.flac:ee35205f732a04a7d092d50f9dd1f52a
blackjake2009-07-08d01t12.flac:10f15afc1182d8c792cf6747c81d8868

shntool 

    length     expanded size    cdr  WAVE problems  fmt   ratio  filename
     0:14.49        2584892 B   ---   --   ---xx   flac  0.4525  blackjake2009-07-08d01t01.flac
     4:34.41       48430076 B   ---   --   ---xx   flac  0.5157  blackjake2009-07-08d01t02.flac
     6:29.21       68669036 B   ---   --   ---xx   flac  0.5571  blackjake2009-07-08d01t03.flac
     6:37.64       70181372 B   ---   --   ---xx   flac  0.5100  blackjake2009-07-08d01t04.flac
     4:53.42       51784028 B   ---   --   ---xx   flac  0.5251  blackjake2009-07-08d01t05.flac
     3:17.02       34755548 B   ---   --   ---xx   flac  0.5653  blackjake2009-07-08d01t06.flac
     5:15.73       55737740 B   ---   --   ---xx   flac  0.5770  blackjake2009-07-08d01t07.flac
     4:21.24       46096892 B   ---   --   ---xx   flac  0.5719  blackjake2009-07-08d01t08.flac
     1:40.40       17734124 B   ---   --   ---xx   flac  0.6298  blackjake2009-07-08d01t09.flac
     3:11.69       33854732 B   ---   --   ---xx   flac  0.5787  blackjake2009-07-08d01t10.flac
     2:35.24       27398492 B   ---   --   ---xx   flac  0.3968  blackjake2009-07-08d01t11.flac
    11:51.01      125422796 B   ---   --   ---xx   flac  0.4764  blackjake2009-07-08d01t12.flac
    55:03.00      582649728 B                            0.5268  (12 files)







More information about the bittorrent mailing list