[bittorrent] gm1994-09-23.sbd

Automated Mailer noreply-bt.e at etree.org
Tue Jul 7 08:17:13 MDT 2009


Band:           Govt Mule
Torrent Name:   gm1994-09-23.sbd
Uploaded by:    jasonpline
DB Link:        http://db.etree.org/lookup_show.php?shows_key=12159
Details:        http://bt.etree.org/details.php?id=526464

Contact the seeder at http://db.etree.org/jasonpline

If the link to this show does not work, it was probably removed for
being non-trade-friendly.

Description / text file:
-------------------------
Gov't Mule
September 23, 1994
Georgia Theatre, Athens, GA

- disc 1
01. 'tuning and intro'
02. Rocking Horse >
03. Blind Man in the Dark >
04. Mr. Big
05. "We have a new band called Gov't Mule"
06. Mother Earth
07. The Same Thing
08. Guitar Solo
09. End of the Line
10. Monkey Hill
11. Gambler's Roll

- disc 2
01. Politician
02. "What The Fuck?!"
03. Left Coast Groovies >
04. World of Difference
05. Sin's A Good Man's Brother
06. Guitar Solo
07. I Just Got Paid

---------------------------------------------------------------------------------
source:   SoundBoard > DAT (clone from master)
transfer: DAT (Tascam DA20) > Acoustic Research Coax > S/PDIF (audiophile24/96[rev.B]) >
              AIFF (Peak4.03/Mac) > shntool > SHN (xACT)

- Taped, Transfered, Tweeked and Seeded by the Home Team -
---------------------------------------------------------------------------------
notes:
- recorded and transfered @ 16/48 - converted to 16/44
- gain raised +2.0db on entire recording
- level adjustments during d1t02
- missing encore
- d2t05 is a cover
---------------------------------------------------------------------------------
shntool output:
    length     expanded size   cdr  WAVE problems filename
     1:08.62       12141068    ---   --   ---xx   mule1994-09-23d1t01.shn
     4:26.65       47075324    ---   --   ---xx   mule1994-09-23d1t02.shn
     6:24.39       67829372    ---   --   ---xx   mule1994-09-23d1t03.shn
     6:30.29       68864252    ---   --   ---xx   mule1994-09-23d1t04.shn
     1:19.44       14039132    ---   --   ---xx   mule1994-09-23d1t05.shn
    11:10.48      118300940    ---   --   ---xx   mule1994-09-23d1t06.shn
    11:01.16      116638076    ---   --   ---xx   mule1994-09-23d1t07.shn
     2:38.63       28019420    ---   --   ---xx   mule1994-09-23d1t08.shn
     6:48.73       72142940    ---   --   ---xx   mule1994-09-23d1t09.shn
     5:54.69       62607932    ---   --   ---xx   mule1994-09-23d1t10.shn
     9:19.23       98661740    ---   --   ---xx   mule1994-09-23d1t11.shn
     6:47.69       71957132    ---   --   ---xx   mule1994-09-23d2t01.shn
     1:17.49       13698092    ---   --   ---xx   mule1994-09-23d2t02.shn
     6:45.25       71500844    ---   --   ---xx   mule1994-09-23d2t03.shn
    13:00.20      137639084    ---   --   ---xx   mule1994-09-23d2t04.shn
    11:04.50      117247244    ---   --   ---xx   mule1994-09-23d2t05.shn
     1:37.53       17235500    ---   --   ---xx   mule1994-09-23d2t06.shn
     7:42.15       81532124    ---   --   ---xx   mule1994-09-23d2t07.shn
   114:59.62     1217130216 B      (totals for 18 files, 0.5806 overall compression ratio)




More information about the bittorrent mailing list