[bittorrent] gd72-03-23.sbd.miller.100000.sbeok.flac16

Automated Mailer noreply-bt.e at etree.org
Sun Jul 5 22:28:07 MDT 2009


Band:           Grateful Dead
Torrent Name:   gd72-03-23.sbd.miller.100000.sbeok.flac16
Uploaded by:    WHARFRAT73
DB Link:        http://db.etree.org/shn/100000
Details:        http://bt.etree.org/details.php?id=526443

Contact the seeder at http://db.etree.org/WHARFRAT73

If the link to this show does not work, it was probably removed for
being non-trade-friendly.

Description / text file:
-------------------------
Grateful Dead - March 23, 1972
Academy of Music - New York, NY

Recording Info:
SBD -> Master Reel -> Apogee AD500 -> Dat (48k)

Transfer Info:
Dat (Sony D8) -> Samplitude Professional v9.11 -> FLAC
(3 Discs Audio / 2 Discs FLAC)

All Transfers and Mastering By Charlie Miller
charliemiller87 at earthlink.net
August 22, 2007

Notes:
-- All disc changes are seamless
-- Bobby plays the Weather Report Suite intro after Chinatown Shuffle
-- Hundreds of flaws removed, but some may still remain
-- Thanks to Rob Eaton for lending me his Dats

Set 1:
d1t01 - China Cat Sunflower ->
d1t02 - I Know You Rider
d1t03 - Black Throated Wind
d1t04 - Chinatown Shuffle
d1t05 - Brown Eyed Women
d1t06 - Beat It On Down The Line
d1t07 - Cumberland Blues
d1t08 - Looks Like Rain
d1t09 - Mr. Charlie
d1t10 - Tennessee Jed
d1t11 - El Paso
d2t01 - You Win Again
d2t02 - Jack Straw
d2t03 - Next Time You See Me
d2t04 - Playing In The Band
d2t05 - Comes A Time
d2t06 - Me And Bobby McGee
d2t07 - Casey Jones

Set 2:
d2t08 - Tuning
d2t09 - Truckin'
d2t10 - Ramble On Rose
d3t01 - Two Souls In Communion
d3t02 - Mexicali Blues
d3t03 - Dark Star
d3t04 - Big Boss Man
d3t05 - Not Fade Away ->
d3t06 - Goin' Down The Road Feeling Bad ->
d3t07 - Not Fade Away
d3t08 - Crowd

Encore:
xxxxx - Sugar Magnolia (MISSING)


SHNTOOL OUTPUT:
    length     expanded size   cdr  WAVE problems filename
     5:56.03       62805500    ---   --   -----   gd72-03-23d1t01.wav
     7:08.16       75536876    ---   --   -----   gd72-03-23d1t02.wav
     8:30.36       90048716    ---   --   -----   gd72-03-23d1t03.wav
     3:57.56       41938556    ---   --   -----   gd72-03-23d1t04.wav
     7:26.64       78824972    ---   --   -----   gd72-03-23d1t05.wav
     5:14.17       55429628    ---   --   -----   gd72-03-23d1t06.wav
     8:32.61       90460316    ---   --   -----   gd72-03-23d1t07.wav
     7:48.37       82642268    ---   --   -----   gd72-03-23d1t08.wav
     5:43.49       60620492    ---   --   -----   gd72-03-23d1t09.wav
     8:56.45       94656284    ---   --   -----   gd72-03-23d1t10.wav
     4:50.29       51224252    ---   --   -----   gd72-03-23d1t11.wav
     5:39.26       59860796    ---   --   -----   gd72-03-23d2t01.wav
     6:09.38       65181020    ---   --   -----   gd72-03-23d2t02.wav
     4:36.43       48787580    ---   --   -----   gd72-03-23d2t03.wav
    11:09.31      118084556    ---   --   -----   gd72-03-23d2t04.wav
     8:41.29       91972652    ---   --   -----   gd72-03-23d2t05.wav
     7:03.08       74636060    ---   --   -----   gd72-03-23d2t06.wav
     5:49.01       61565996    ---   --   -----   gd72-03-23d2t07.wav
     2:49.66       29966876    ---   --   -----   gd72-03-23d2t08.wav
    11:59.23      126885740    ---   --   -----   gd72-03-23d2t09.wav
     8:55.24       94430492    ---   --   -----   gd72-03-23d2t10.wav
     8:58.12       94931468    ---   --   -----   gd72-03-23d3t01.wav
     7:23.18       78187580    ---   --   -----   gd72-03-23d3t02.wav
    23:10.57      245330108    ---   --   -----   gd72-03-23d3t03.wav
     9:42.61      102808316    ---   --   -----   gd72-03-23d3t04.wav
     5:29.09       58056812    ---   --   -----   gd72-03-23d3t05.wav
     7:23.72       78314588    ---   --   -----   gd72-03-23d3t06.wav
     3:10.63       33664220    ---   --   -----   gd72-03-23d3t07.wav
     3:46.57       40000508    ---   --   -----   gd72-03-23d3t08.wav
   216:04.01     2286853228 B                     (totals for 29 files)




More information about the bittorrent mailing list