[bittorrent] Grateful Dead - 1973-06-26 Seattle Center Arena - Seattle, WA *Matrix*

Automated Mailer noreply-bt.e at etree.org
Sun Jul 5 14:18:32 MDT 2009


Band:           Grateful Dead
Torrent Name:   Grateful Dead - 1973-06-26 Seattle Center Arena - Seattle, WA *Matrix*
Uploaded by:    hseamons
DB Link:        http://db.etree.org/shn/100024
Details:        http://bt.etree.org/details.php?id=526434

Contact the seeder at http://db.etree.org/hseamons

If the link to this show does not work, it was probably removed for
being non-trade-friendly.

Description / text file:
-------------------------
Grateful Dead
Seattle Center Arena
Seattle, WA
June 26, 1973

Jerry Garcia - Lead Guitar, Vocals
Donna Jean Godchaux - Vocals
Keith Godchaux - Keyboards
Bill Kreutzmann - Drums
Phil Lesh - Electric Bass, Vocals
Bob Weir - Rhythm Guitar, Vocals



*Matrix* 

----------------------------------------------------
SBD (shnid=12076):

SBD>MR>C>D>CD>EAC>SHN

Cuts:

--Casey Jones through Brown Eyed Women
--in Loser from 2:55 to 3:22
--all of Black Peter
--in Truckin' from 4:18 to 4:42
--the final few seconds of Sugar Magnolia

Thanks to Mark Sweeney & Chuck Gannon
edits/encoding by JCotsman 

----------------------------------------------------
AUD (shnid=14673):

AUDMC > Reel > Reel > DAT > WAV > SHN

Recorded by Donn Amick, FOB, Sony EMC mics spread out across the
row > TC-126 master cassette > Amick's Reel recorded at 7-1/2ips >
Reel(w/ Dolby).

A > D by Noah Weiner (noahbw at attbi.com) November, 2002

Reel playback on Pioneer RT-701 > Teac AN-180 Dolby decoder >
Fostex D5 DAT (A>D only) > Turtle Beach Montego II Digital I/O >
Soundforge (wav edits and track IDs) > SHNTOOL (SBE fix) > MKW (shn)

---------------------------------------------------
Thank you to J. Cotsman for the SBD transfer,
to Donn Amick for recording this beautiful, stellar show,
and to Noah Weiner for the great AUD transfer.

Matrix by Hunter Seamons using Final Cut Pro (SHN>AIFF>Final Cut>WAV>FLAC) 
July 4, 2009


Set I
-----
d1t01 - Casey Jones ->  
d1t02 - Greatest Story Ever Told
d1t03 - Brown Eyed Women
d1t04 - Jack Straw
d1t05 - Box Of Rain 
d1t06 - Deal
d1t07 - Mexicali Blues
d1t08 - You Ain't Woman Enough
d1t09 - Row Jimmy
d1t10 - The Race Is On
d1t11 - China Cat Sunflower -> 
d1t12 - I Know You Rider
d1t13 - Beat It On Down The Line
d1t14 - Loser 
d2t01 - Playing In The Band

Set II
-----
d2t02 - Bertha -> 
d2t03 - Promised Land 
d2t04 - They Love Each Other 
d2t05 - El Paso 
d2t06 - Black Peter  
d2t07 - Big River 
d2t08 - Here Comes Sunshine 
d2t09 - Me And My Uncle 
d3t01 - He's Gone -> 
d3t02 - Truckin' -> 
d3t03 - Drums ->  
d3t04 - The Other One -> 
d3t05 - Me And Bobby McGee -> 
d3t06 - The Other One ->
d3t07 - Space -> 
d3t08 - Sugar Magnolia 

encore:
d3t09 - Johnny B. Goode 


Notes:

1) Phil is a BEAST during this show.

2) There are occasional, quick shifts in the SBD mix. Garcia's guitar, for instance, will shift from the right channel to the left channel in the SBD. There are also various anomalies at points, and miniscule cuts.

3) There are small cuts in the SBD and AUD at the McGee > Other One transition, leaving a moment of the show missing.


    length     expanded size    cdr  WAVE problems  fmt   ratio  filename
     6:23.26       67622396 B   ---   --   ---xx  gd73-06-26d1t01.flac
     5:20.66       56603276 B   ---   --   ---xx  gd73-06-26d1t02.flac
     6:31.02       68977148 B   ---   --   ---xx  gd73-06-26d1t03.flac
     5:08.46       54439436 B   ---   --   ---xx  gd73-06-26d1t04.flac
     5:13.68       55373180 B   ---   --   ---xx  gd73-06-26d1t05.flac
     4:21.15       46075724 B   ---   --   ---xx  gd73-06-26d1t06.flac
     3:34.54       37876652 B   ---   --   ---xx  gd73-06-26d1t07.flac
     4:06.10       43417964 B   ---   --   ---xx  gd73-06-26d1t08.flac
     9:21.50       99078044 B   ---   --   ---xx  gd73-06-26d1t09.flac
     3:23.13       35839820 B   ---   --   ---xx  gd73-06-26d1t10.flac
     8:15.09       87339212 B   ---   --   ---xx  gd73-06-26d1t11.flac
     5:38.08       59642060 B   ---   --   ---xx  gd73-06-26d1t12.flac
     3:27.01       36517196 B   ---   --   ---xx  gd73-06-26d1t13.flac
     5:09.46       54615836 B   ---   --   ---xx  gd73-06-26d1t14.flac
    15:56.51      168758396 B   ---   --   ---xx  gd73-06-26d2t01.flac
     6:03.63       64181420 B   ---   --   ---xx  gd73-06-26d2t02.flac
     3:15.57       34532108 B   ---   --   ---xx  gd73-06-26d2t03.flac
     5:39.13       59830220 B   ---   --   ---xx  gd73-06-26d2t04.flac
     4:31.25       47863244 B   ---   --   ---xx  gd73-06-26d2t05.flac
     9:26.53       99967100 B   ---   --   ---xx  gd73-06-26d2t06.flac
     4:43.06       49935356 B   ---   --   ---xx  gd73-06-26d2t07.flac
    12:12.70      129289484 B   ---   --   ---xx  gd73-06-26d2t08.flac
     3:25.35       36244364 B   ---   --   ---xx  gd73-06-26d2t09.flac
    14:09.01      149765996 B   ---   --   ---xx  gd73-06-26d3t01.flac
     9:19.02       98612348 B   ---   --   ---xx  gd73-06-26d3t02.flac
     1:47.43       18975980 B   ---   --   ---xx  gd73-06-26d3t03.flac
     6:40.38       70649420 B   ---   --   ---xx  gd73-06-26d3t04.flac
     5:31.40       58482524 B   ---   --   ---xx  gd73-06-26d3t05.flac
    10:05.33      106799660 B   ---   --   ---xx  gd73-06-26d3t06.flac
     8:20.47       88310588 B   ---   --   ---xx  gd73-06-26d3t07.flac
    10:00.45      105945884 B   ---   --   ---xx  gd73-06-26d3t08.flac
     4:21.66       46195676 B   ---   --   ---xx  gd73-06-26d3t09.flac
   211:25.52     2237757712 B                            0.4843  (32 files)



More information about the bittorrent mailing list