[bittorrent] Tarbox Ramblers The Ark Ann Arbor, Michigan 6/30/2009

Automated Mailer noreply-bt.e at etree.org
Wed Jul 1 07:49:15 MDT 2009


Band:           Other
Torrent Name:   Tarbox Ramblers The Ark Ann Arbor, Michigan 6/30/2009
Uploaded by:    zmanatl
DB Link:        
Details:        http://bt.etree.org/details.php?id=526367

Contact the seeder at http://db.etree.org/zmanatl

If the link to this show does not work, it was probably removed for
being non-trade-friendly.

Description / text file:
-------------------------
Tarbox Ramblers
The Ark
Ann Arbor, Michigan
6/30/2009

Source: Schoeps CCM4V'S(din)>Lunatec V2>Benchmark AD2K>
Sound Devices 722 (24/48) 
Location: FOB/DFC/KFC/ZFC/AARP Row C, Seat 4, 5 1/2' High
DSP: Sound Devices 722>Sound Forge 9.0>CD Wave>flac(16)
Recorded By: Z-Man
Seeded By: Z-Man
  
Disc I 

01 Announcements and Introduction By Robin
02 
03 44 Blues
04 Stewball
05 St. James Infirmary
06 Diamond
07 Night Train to Chelsea
08 Third Jinx Blues
09 Banter on Glasses
10 ?
11 ?

Disc II 

01 I Need A World
02 The Country Blues
03 Banter
04 November Song
05 My Primitive Joy
06 
07 Last Month Of The Year
08 Can't Say It All
09 Honey In The Rock
Encore:
10 Banter
11 ? >
12 Rollin' And Tumblin'
13 House Of The Risin' Sun >
14 Hold My Body Down

Flac fingerprint 

tbr2009-06-30d01t01.flac:2866da669625210a491e446bb8080b14
tbr2009-06-30d01t02.flac:23a1f4169a74f4e9310f2a23c5b90a79
tbr2009-06-30d01t03.flac:96fc860877728d2c8cf6a9a675f59901
tbr2009-06-30d01t04.flac:151582cd5c78dcc2b86f8694927e6ba0
tbr2009-06-30d01t05.flac:ce5fe4bdd7139820b9e50a5c2ab853b5
tbr2009-06-30d01t06.flac:32dcc0b2699ff4b181816ff875ea6b04
tbr2009-06-30d01t07.flac:a648f291f439dd8a2a8f7a1963ae777c
tbr2009-06-30d01t08.flac:a38a34f59d3e80d102ec358b92bdc103
tbr2009-06-30d01t09.flac:29c10c0578933801c5f72cb1f6bbc33c
tbr2009-06-30d01t10.flac:ce8c8210480cb2c3e7965b142a3136d6
tbr2009-06-30d01t11.flac:4affc10695a6e9df1f618d3632dfd58e
tbr2009-06-30d02t01.flac:09a68b435739772925b07ecd29155cf7
tbr2009-06-30d02t02.flac:ffe2c33874382b28c2480684a080b1b5
tbr2009-06-30d02t03.flac:5d8411d2427d5b29ef139243cfe23076
tbr2009-06-30d02t04.flac:d03027e1bd021b0ce9ab9ba13fe26fb7
tbr2009-06-30d02t05.flac:d1ed9e0baf583aee68b6bbed28be112b
tbr2009-06-30d02t06.flac:1ef7e08281a93513da90b36e6ac90905
tbr2009-06-30d02t07.flac:55d30ac63399d4217d359e14bd405743
tbr2009-06-30d02t08.flac:c2c39ace6f22e24485ee7981cf51ad20
tbr2009-06-30d02t09.flac:e43f49afa27e33f6ae64b30b48be2e6d
tbr2009-06-30d02t10.flac:af8f4e3daed090332cc0c332c92617fb
tbr2009-06-30d02t11.flac:1dec694732909116eda79d3d356250b2
tbr2009-06-30d02t12.flac:92e1de610a1d7d306e01ecd175bb6f6e
tbr2009-06-30d02t13.flac:c27d483272545ffb7f419e83ff92cec5
tbr2009-06-30d02t14.flac:515ec9fb1dce6c72d3423274e4546603

shntool 

    length     expanded size    cdr  WAVE problems  fmt   ratio  filename
     3:10.62       33661868 B   ---   --   ---xx   flac  0.3640  tbr2009-06-30d01t01.flac
     3:13.74       34219292 B   ---   --   ---xx   flac  0.4999  tbr2009-06-30d01t02.flac
     4:42.01       49747196 B   ---   --   ---xx   flac  0.5212  tbr2009-06-30d01t03.flac
     4:54.58       51998060 B   ---   --   ---xx   flac  0.5094  tbr2009-06-30d01t04.flac
     4:10.42       44198828 B   ---   --   ---xx   flac  0.3264  tbr2009-06-30d01t05.flac
     5:06.38       54067820 B   ---   --   ---xx   flac  0.5065  tbr2009-06-30d01t06.flac
     4:23.54       46520252 B   ---   --   ---xx   flac  0.3932  tbr2009-06-30d01t07.flac
     5:07.60       54295964 B   ---   --   ---xx   flac  0.4638  tbr2009-06-30d01t08.flac
     2:59.00       31575644 B   ---   --   ---xx   flac  0.2562  tbr2009-06-30d01t09.flac
     4:53.40       51779324 B   ---   --   ---xx   flac  0.5635  tbr2009-06-30d01t10.flac
     4:24.40       46663724 B   ---   --   ---xx   flac  0.4779  tbr2009-06-30d01t11.flac
     6:25.54       68041052 B   ---   --   ---xx   flac  0.4785  tbr2009-06-30d02t01.flac
     4:35.26       48571196 B   ---   --   ---xx   flac  0.5220  tbr2009-06-30d02t02.flac
     1:20.51       14231996 B   ---   --   ---xx   flac  0.2499  tbr2009-06-30d02t03.flac
     2:38.60       28012364 B   ---   --   ---xx   flac  0.3741  tbr2009-06-30d02t04.flac
     4:44.00       50097644 B   ---   --   ---xx   flac  0.3777  tbr2009-06-30d02t05.flac
     3:45.55       39819404 B   ---   --   ---xx   flac  0.4982  tbr2009-06-30d02t06.flac
     5:00.73       53091740 B   ---   --   ---xx   flac  0.4357  tbr2009-06-30d02t07.flac
     2:30.40       26554124 B   ---   --   ---xx   flac  0.3373  tbr2009-06-30d02t08.flac
     3:33.68       37733180 B   ---   --   ---xx   flac  0.5824  tbr2009-06-30d02t09.flac
     1:19.50       14053244 B   ---   --   ---xx   flac  0.3620  tbr2009-06-30d02t10.flac
     4:30.27       47691548 B   ---   --   ---xx   flac  0.5455  tbr2009-06-30d02t11.flac
     2:37.38       27784220 B   ---   --   ---xx   flac  0.5710  tbr2009-06-30d02t12.flac
     3:01.23       31982540 B   ---   --   ---xx   flac  0.4828  tbr2009-06-30d02t13.flac
     3:40.12       38836268 B   ---   --   ---xx   flac  0.5579  tbr2009-06-30d02t14.flac
    96:51.71     1025228492 B                            0.4638  (25 files)







More information about the bittorrent mailing list