[bittorrent] Yid Vicious The Ark Ann Arbor, Michigan 8/30/2009

Automated Mailer noreply-bt.e at etree.org
Mon Aug 31 08:45:03 MDT 2009


Band:           Other
Torrent Name:   Yid Vicious The Ark Ann Arbor, Michigan 8/30/2009
Uploaded by:    zmanatl
DB Link:        
Details:        http://bt.etree.org/details.php?id=527868

Contact the seeder at http://db.etree.org/zmanatl

If the link to this show does not work, it was probably removed for
being non-trade-friendly.

Description / text file:
-------------------------
Yid Vicious
The Ark
Ann Arbor, Michigan
8/30/2009

Source: Schoeps CCM4V'S(din)>Lunatec V2>Benchmark AD2K>
Sound Devices 722 (24/48) 
Location: BOB/DFC/KFC/ZFC/AARP Row E, Seat 3, 6' High
DSP: Sound Devices 722>Sound Forge 9.0>CD Wave>flac(16)
Recorded By: Z-Man
Seeded By: Z-Man
  
Disc I 1st Set

01 Announcements and Introduction By Bill
02 Romanian Bulgar 
03 Fun Tashlik
04 Araber
05 The Devil's Sher
06 Hora Mit Tsibeles
07 Banter
08 The Odessa Bulgar
09 Hogar The Horrible
10 Band Introductions >
11 *Sadegurer
12 #Gypsy
13 21st Century Tangar
14 Tosca
15 Vicious
16 Zopilote

Disc II 2nd Set

01 @Invertita
02 Leben Zol
03 The Bearded Onga
04 Banter On The Origin Of Yid Vicious
05 The Seventh Schlameel
06 Bayim Rebens Suda
07 The Girl From Bukhovina
08 Jenny's Theme
09 Bai Mir
10 Zilberne Wedding >
11 Vicious Hora
12 Der Khisidim 
13 Der Khusid
14 Gasn Nign
Encore:
15 Banter
16 Forbertz

* The Band scattered throughout the Audience. The crowd did a large
grapevine on the front of the floor.
# Violin, Accordian, and Drums Only
@ Accordian, Clarinet, and Tambourine Only

Flac Fingerprint 

yidvicious2009-08-30d01t01.flac:d71ace1f57bc1d54de4668978acb92cd
yidvicious2009-08-30d01t02.flac:62395346eb5a4b68685d6e5376fad982
yidvicious2009-08-30d01t03.flac:bb76709537a9747c56a98b3ebef269cc
yidvicious2009-08-30d01t04.flac:a4e651f5d819fb6f73b0b27820c34327
yidvicious2009-08-30d01t05.flac:e948ef1f8b2686543a1b5dca1dd54bf0
yidvicious2009-08-30d01t06.flac:e333d87df73ab40f0ca0271da33496ef
yidvicious2009-08-30d01t07.flac:c7cb9271d010b3980bf17da2a4a0909a
yidvicious2009-08-30d01t08.flac:4f67180c9dcdb1195959bae46f582cca
yidvicious2009-08-30d01t09.flac:a3a74f55356da685ea0f3c7e61c1f2ba
yidvicious2009-08-30d01t10.flac:2f3ddf9fe15dc6a4238dfc4d43d3f04e
yidvicious2009-08-30d01t11.flac:3f48e7adb6dda0e543a09676fab2832b
yidvicious2009-08-30d01t12.flac:841888075c67dbf68254b035a73add6b
yidvicious2009-08-30d01t13.flac:219fb9ac23faf7e1635f27a32be53ab3
yidvicious2009-08-30d01t14.flac:92b8f378bcfeb0053665cac90b75d636
yidvicious2009-08-30d01t15.flac:098cfa0f16c6e1f2abfab0156489a23a
yidvicious2009-08-30d01t16.flac:c33e3286e5702422019c62cf11d3c946
yidvicious2009-08-30d02t01.flac:2f0d686bcea304a8ef45f99d6cb6ed8e
yidvicious2009-08-30d02t02.flac:94a24253663e15ecd0c58413641c84b1
yidvicious2009-08-30d02t03.flac:75ed53e5bda0aaf1e37d840c4ec9a903
yidvicious2009-08-30d02t04.flac:9c87a417bc242a7917bd1f1590095436
yidvicious2009-08-30d02t05.flac:eb6330d9feda5b5eed9d6e331e932822
yidvicious2009-08-30d02t06.flac:f5a1477879d592ff8b3a6d1b85188b73
yidvicious2009-08-30d02t07.flac:8b06dcfeae46a72513b9119cf4a8911e
yidvicious2009-08-30d02t08.flac:c56482287f4ca4f238db97f880033344
yidvicious2009-08-30d02t09.flac:c54fec5d56f54cffd9f1ec63a8edd9c1
yidvicious2009-08-30d02t10.flac:44a46a76e3c5199c857c44d51011771e
yidvicious2009-08-30d02t11.flac:c186be41464ccce7a0ff5562c3ef9f08
yidvicious2009-08-30d02t12.flac:8ef0df6ed394106ae733d0ceccc7ce1f
yidvicious2009-08-30d02t13.flac:ce740857a7adcda79a079acc7973814c
yidvicious2009-08-30d02t14.flac:55ce5fb47543197e5b845dc14cb4f56d
yidvicious2009-08-30d02t15.flac:55387ba4d980f70caab3094577e7ea88
yidvicious2009-08-30d02t16.flac:006c1c6730e8c0050af4045f34279254

shntool 

    length     expanded size    cdr  WAVE problems  fmt   ratio  filename
     1:09.29       12239852 B   ---   --   ---xx   flac  0.4108  yidvicious2009-08-30d01t01.flac
     3:38.36       38539916 B   ---   --   ---xx   flac  0.5178  yidvicious2009-08-30d01t02.flac
     3:38.24       38511692 B   ---   --   ---xx   flac  0.5136  yidvicious2009-08-30d01t03.flac
     5:36.44       59373932 B   ---   --   ---xx   flac  0.4611  yidvicious2009-08-30d01t04.flac
     3:17.60       34891964 B   ---   --   ---xx   flac  0.4761  yidvicious2009-08-30d01t05.flac
     6:30.44       68899532 B   ---   --   ---xx   flac  0.4127  yidvicious2009-08-30d01t06.flac
     1:44.22       18397388 B   ---   --   ---xx   flac  0.3260  yidvicious2009-08-30d01t07.flac
     3:29.05       36879404 B   ---   --   ---xx   flac  0.4816  yidvicious2009-08-30d01t08.flac
     6:17.34       66582812 B   ---   --   ---xx   flac  0.4824  yidvicious2009-08-30d01t09.flac
     1:58.26       20876396 B   ---   --   ---xx   flac  0.4517  yidvicious2009-08-30d01t10.flac
     4:58.41       52663676 B   ---   --   ---xx   flac  0.5430  yidvicious2009-08-30d01t11.flac
     4:47.49       50742092 B   ---   --   ---xx   flac  0.4537  yidvicious2009-08-30d01t12.flac
     8:02.16       85062476 B   ---   --   ---xx   flac  0.4994  yidvicious2009-08-30d01t13.flac
     4:09.31       43996556 B   ---   --   ---xx   flac  0.3282  yidvicious2009-08-30d01t14.flac
     5:58.06       63165356 B   ---   --   ---xx   flac  0.5097  yidvicious2009-08-30d01t15.flac
     3:00.02       31756748 B   ---   --   ---xx   flac  0.4997  yidvicious2009-08-30d01t16.flac
     4:24.53       46694300 B   ---   --   ---xx   flac  0.4563  yidvicious2009-08-30d02t01.flac
     3:49.02       40400348 B   ---   --   ---xx   flac  0.4807  yidvicious2009-08-30d02t02.flac
     3:34.63       37897820 B   ---   --   ---xx   flac  0.4729  yidvicious2009-08-30d02t03.flac
     1:40.02       17644748 B   ---   --   ---xx   flac  0.2455  yidvicious2009-08-30d02t04.flac
     6:11.26       65505596 B   ---   --   ---xx   flac  0.4683  yidvicious2009-08-30d02t05.flac
     7:57.42       84241628 B   ---   --   ---xx   flac  0.3565  yidvicious2009-08-30d02t06.flac
     5:43.36       60589916 B   ---   --   ---xx   flac  0.4228  yidvicious2009-08-30d02t07.flac
     5:39.14       59832572 B   ---   --   ---xx   flac  0.3837  yidvicious2009-08-30d02t08.flac
     4:58.37       52654268 B   ---   --   ---xx   flac  0.4093  yidvicious2009-08-30d02t09.flac
     2:42.25       28635644 B   ---   --   ---xx   flac  0.4875  yidvicious2009-08-30d02t10.flac
     2:26.11       25780316 B   ---   --   ---xx   flac  0.4922  yidvicious2009-08-30d02t11.flac
     7:46.58       82338860 B   ---   --   ---xx   flac  0.5299  yidvicious2009-08-30d02t12.flac
     3:24.67       36143228 B   ---   --   ---xx   flac  0.4933  yidvicious2009-08-30d02t13.flac
     3:10.55       33645404 B   ---   --   ---xx   flac  0.2793  yidvicious2009-08-30d02t14.flac
     0:51.37        9083468 B   ---   --   ---xx   flac  0.2773  yidvicious2009-08-30d02t15.flac
     3:43.65       39490124 B   ---   --   ---xx   flac  0.5169  yidvicious2009-08-30d02t16.flac
   136:21.12     1443158032 B                            0.4527  (32 files)





More information about the bittorrent mailing list