[bittorrent] Covert Operations Ken & Katy's Wedding St. Claire, Michigan 8/29/2009

Automated Mailer noreply-bt.e at etree.org
Sun Aug 30 12:41:29 MDT 2009


Band:           Other
Torrent Name:   Covert Operations Ken & Katy's Wedding St. Claire, Michigan 8/29/2009
Uploaded by:    zmanatl
DB Link:        
Details:        http://bt.etree.org/details.php?id=527854

Contact the seeder at http://db.etree.org/zmanatl

If the link to this show does not work, it was probably removed for
being non-trade-friendly.

Description / text file:
-------------------------
Covert Operations
Ken And Katy Campbell's Wedding
Grandma Kris Campbell's Barn
St. Claire, Michigan
8/29/2009

Source: Schoeps CCM4V'S(din)>Lunatec V2>Benchmark AD2K>
Sound Devices 722 (24/48) 
Location: FOB/DRFC/KFC/ZFC/AARP 15' From Stage, 7' High
DSP: Sound Devices 722>Sound Forge 9.0>CD Wave>flac(16)
Recorded By: Z-Man
Seeded By: Z-Man
  
Disc I 1st Set

01 Mr. Charlie
02 Wedding Speaches
03 Zone Room
04 Coming Home
05 Birds Of A Feather
06 Whiskey In The Jar
07 China-Cat Sunflower >
08 I Know You Rider
09 Bad Fish >
10 The Best

Disc II 2nd Set 

01 Greeting/Tuning
02 Slip And Slide
03 What Went Wrong
04 Stir It Up
05 Growin' Old
06 Take Me To The River
07 Althea >
08 Chalkdust Torture

Disc III 2nd Set Con't 

01 Home 
02 *Lovin' Cup
3rd Set:
03 #We's Rockin' All Night Long
04 Lay Down Sally >
05 Franklin's Tower >
06 Happenstance
07 Original Originals

Disc IV 3rd Set Con't

01 Trouble Is Not Forgotten
02 Crashing Through The Sky
03 Fast
04 No Woman No Cry >
05 @Molly (Thick As Thieves Song) >
06 Down Town
07 Sacrifice >
08 Get Up/Sex Machine >
09 We Want The Funk >
10 Sacrifice

* With James On Percussion
# With Randy Clement (Father Of The Bride) on Guitar And Vocals
@ First Time Played

Featuring:

Matt Burgie On Drums
Aaron Brown Of Lucky Brown On Keyboards 1st and 2nd set, and Disc IV #4,5, and 6 

Flac Fingerprint 

covertoperations2009-08-29d01t01.flac:3e7d21a487c749678d09ccae7413e0af
covertoperations2009-08-29d01t02.flac:01ba336fc111c54d8a4611dd9d3f0801
covertoperations2009-08-29d01t03.flac:cd80f09cafd545e7a56274f71de79425
covertoperations2009-08-29d01t04.flac:9f9ee7d89f1febfc6232063bcd37d13e
covertoperations2009-08-29d01t05.flac:bf520e7663af72dccdb73eb5fb24e9b7
covertoperations2009-08-29d01t06.flac:3e9c4548185851b36999cd0a756b0e9f
covertoperations2009-08-29d01t07.flac:9b3ae80ff4b608e595aa5654f219390b
covertoperations2009-08-29d01t08.flac:8a153f8b3a3c9b0b83f3514a216ce242
covertoperations2009-08-29d01t09.flac:d92b9e2936b913222735c4e88764d1cc
covertoperations2009-08-29d01t10.flac:20df63232efe90007e9847ec9f9895f4
covertoperations2009-08-29d02t01.flac:981407a6618d034d91b3184f0d65f4ba
covertoperations2009-08-29d02t02.flac:7d28e7fe032097a48e174f01a135b0a7
covertoperations2009-08-29d02t03.flac:61413d7f83dbca70c27809d127a520e4
covertoperations2009-08-29d02t04.flac:db7da2c5966aae4c60082e98e9490241
covertoperations2009-08-29d02t05.flac:58c0b524dd1cae2cb4aa9fc5d77afa47
covertoperations2009-08-29d02t06.flac:539b82a9dc6c4c95d7ab9547687c803b
covertoperations2009-08-29d02t07.flac:1a7abb76472268d04fae8addc868b951
covertoperations2009-08-29d02t08.flac:298da64da5344f58c8c189d50855f26e
covertoperations2009-08-29d03t01.flac:353e32ce5919aafaa45d8999fc821b69
covertoperations2009-08-29d03t02.flac:a567e59678a7676ac9e6c20182485354
covertoperations2009-08-29d03t03.flac:715804c95ddb0a91924ab387a6d6e1d1
covertoperations2009-08-29d03t04.flac:2b27cce71ef776808b88d4626ca3e091
covertoperations2009-08-29d03t05.flac:e020fe7806046172c94181b495ed5854
covertoperations2009-08-29d03t06.flac:462bb0a83f600bf72d213e1d088a7991
covertoperations2009-08-29d03t07.flac:5291b908831534cdb2ee7d04e72eaee7
covertoperations2009-08-29d04t01.flac:0a7a1e5a599aa81a493a1d7883ddaa0f
covertoperations2009-08-29d04t02.flac:bcd052443ad92dc0edc6427737747e68
covertoperations2009-08-29d04t03.flac:e3076fedcb570b9fa9708fced1f038c1
covertoperations2009-08-29d04t04.flac:34fce3a74470d1ec58c532e34388a55e
covertoperations2009-08-29d04t05.flac:1a4df4d451c3997ee194423b0c72425b
covertoperations2009-08-29d04t06.flac:b894a2950a237fa845f13bb7ebf9e9f5
covertoperations2009-08-29d04t07.flac:f26d82b60d1653e8ec56bd19b3e915a3
covertoperations2009-08-29d04t08.flac:b548ec4697aee495549812abe91f3999
covertoperations2009-08-29d04t09.flac:2923fdbf10fa16c0cc6832c5501acfb9
covertoperations2009-08-29d04t10.flac:5a649e03952550e9620ba45e4d3d2501

shntool 

    length     expanded size    cdr  WAVE problems  fmt   ratio  filename
     5:19.57       56405708 B   ---   --   ---xx   flac  0.5378  covertoperations2009-08-29d01t01.flac
     8:52.07       93861308 B   ---   --   ---xx   flac  0.3506  covertoperations2009-08-29d01t02.flac
    11:52.74      125770892 B   ---   --   ---xx   flac  0.5435  covertoperations2009-08-29d01t03.flac
     5:09.38       54597020 B   ---   --   ---xx   flac  0.4588  covertoperations2009-08-29d01t04.flac
     6:20.01       67034396 B   ---   --   ---xx   flac  0.5891  covertoperations2009-08-29d01t05.flac
     3:58.62       42129068 B   ---   --   ---xx   flac  0.4060  covertoperations2009-08-29d01t06.flac
     9:01.62       95578268 B   ---   --   ---xx   flac  0.5474  covertoperations2009-08-29d01t07.flac
     6:43.24       71145692 B   ---   --   ---xx   flac  0.5115  covertoperations2009-08-29d01t08.flac
     3:32.46       37505036 B   ---   --   ---xx   flac  0.5010  covertoperations2009-08-29d01t09.flac
    11:46.26      124599596 B   ---   --   ---xx   flac  0.5403  covertoperations2009-08-29d01t10.flac
     0:38.50        6820844 B   ---   --   ---xx   flac  0.2896  covertoperations2009-08-29d02t01.flac
     8:41.65       92057324 B   ---   --   ---xx   flac  0.5005  covertoperations2009-08-29d02t02.flac
    11:14.16      118931276 B   ---   --   ---xx   flac  0.5555  covertoperations2009-08-29d02t03.flac
     9:14.62       97871468 B   ---   --   ---xx   flac  0.4811  covertoperations2009-08-29d02t04.flac
     7:11.70       76193084 B   ---   --   ---xx   flac  0.5308  covertoperations2009-08-29d02t05.flac
    11:52.09      125618012 B   ---   --   ---xx   flac  0.5184  covertoperations2009-08-29d02t06.flac
     7:23.48       78258140 B   ---   --   ---xx   flac  0.4774  covertoperations2009-08-29d02t07.flac
     7:21.43       77893580 B   ---   --   ---xx   flac  0.5810  covertoperations2009-08-29d02t08.flac
     8:42.63       92229020 B   ---   --   ---xx   flac  0.5050  covertoperations2009-08-29d03t01.flac
    12:04.30      127784204 B   ---   --   ---xx   flac  0.5118  covertoperations2009-08-29d03t02.flac
     3:22.10       35656364 B   ---   --   ---xx   flac  0.3853  covertoperations2009-08-29d03t03.flac
     9:36.11      101632316 B   ---   --   ---xx   flac  0.5453  covertoperations2009-08-29d03t04.flac
    11:56.57      126436508 B   ---   --   ---xx   flac  0.4956  covertoperations2009-08-29d03t05.flac
     9:59.53      105788300 B   ---   --   ---xx   flac  0.5419  covertoperations2009-08-29d03t06.flac
     5:16.59       55881212 B   ---   --   ---xx   flac  0.5064  covertoperations2009-08-29d03t07.flac
     4:44.18       50139980 B   ---   --   ---xx   flac  0.5156  covertoperations2009-08-29d04t01.flac
     3:52.57       41058908 B   ---   --   ---xx   flac  0.5369  covertoperations2009-08-29d04t02.flac
     3:51.18       40790780 B   ---   --   ---xx   flac  0.5209  covertoperations2009-08-29d04t03.flac
    10:33.01      111663596 B   ---   --   ---xx   flac  0.4961  covertoperations2009-08-29d04t04.flac
     5:15.06       55580156 B   ---   --   ---xx   flac  0.5635  covertoperations2009-08-29d04t05.flac
     6:27.19       68311532 B   ---   --   ---xx   flac  0.5543  covertoperations2009-08-29d04t06.flac
    10:51.29      114904652 B   ---   --   ---xx   flac  0.5587  covertoperations2009-08-29d04t07.flac
     2:07.41       22499276 B   ---   --   ---xx   flac  0.5766  covertoperations2009-08-29d04t08.flac
     2:44.66       29084876 B   ---   --   ---xx   flac  0.5837  covertoperations2009-08-29d04t09.flac
     3:13.68       34205180 B   ---   --   ---xx   flac  0.5110  covertoperations2009-08-29d04t10.flac
   250:56.16     2655917572 B                            0.5167  (35 files)








More information about the bittorrent mailing list