[bittorrent] gd79-12-28.sbd.ladner.87394.sbeok.flac16 - By Request

Automated Mailer noreply-bt.e at etree.org
Sun Aug 30 06:51:40 MDT 2009


Band:           Grateful Dead
Torrent Name:   gd79-12-28.sbd.ladner.87394.sbeok.flac16 - By Request
Uploaded by:    WHARFRAT73
DB Link:        http://db.etree.org/shn/87394
Details:        http://bt.etree.org/details.php?id=527848

Contact the seeder at http://db.etree.org/WHARFRAT73

If the link to this show does not work, it was probably removed for
being non-trade-friendly.

Description / text file:
-------------------------
Grateful Dead
12/28/1979 
Oakland Auditorium
Oakland, CA

Source:  SBD > MR > PCM > DAT > WAV > FLAC.   DAT provided by B.Koucky/B.Fried.
Transfer/mastering:  DAT (48 KHz) playback on Sony PCM-R500, AES digital output > Benchmark DAC1, XLR analog output > Grace Lunatec V3, sample rate at 96 KHz, AES digiout) > AES digital input, professional mode/sync - LynxTwo soundcard in E6400 dual core processor-based PC > HD as 24 bit/96 KHz WAV > Ozone 3.0 > MBIT+ dithering to 16/44.1 KHz WAV > CDWAV 1.9 (tracking) > FLAC (level 8).   Recording, editing and mastering with Wavelab 5.0.  All cables were Mogami Gold 0.3m pro-audio XLR cables.  All components in the transfer/mastering chain were powered from a Cyberpower 1285AVR noise-attenuated uninterruptible AC power supply.   Transferred and mastered by ChrisL.
Seeded by the Green Mountain Bros. at bt.etree.org, September 2007.

Disc I - Set I
01  tuning
02  Sugaree
03  Mama Tried >
04  Mexicali Blues
05  Row Jimmy
06  It's All Over Now
07  High Time
08  The Music Never Stopped
Set II
09  tuning
10  Alabama Getaway >
11  Greatest Story Ever Told

Disc II - Set II (cont'd)
01  Terrapin Station >
02  Playin' In The Band > Jam
03  Drums >
04  Space >
05  Uncle John's Band >
06  I Need A Miracle >
07  Bertha >
08  Good Lovin'
Encore
09  Casey Jones
10  One More Saturday Night

Comments:
Slight hiss suggesting an unlisted cassette generation.

SHNTOOL LEN OUTPUT:
    length     expanded size   cdr  WAVE problems filename
     1:14.29       13121852    ---   --   ---xx   gd1979-12-28d1t01.flac
    16:40.46      176508236    ---   --   ---xx   gd1979-12-28d1t02.flac
     2:28.62       26253068    ---   --   ---xx   gd1979-12-28d1t03.flac
     5:49.74       61737692    ---   --   ---xx   gd1979-12-28d1t04.flac
    13:48.71      146226236    ---   --   ---xx   gd1979-12-28d1t05.flac
     8:38.12       91403468    ---   --   ---xx   gd1979-12-28d1t06.flac
     6:56.24       73438892    ---   --   ---xx   gd1979-12-28d1t07.flac
     8:41.63       92052620    ---   --   ---xx   gd1979-12-28d1t08.flac
     0:42.22        7460588    ---   --   ---xx   gd1979-12-28d1t09.flac
     6:42.40       71006924    ---   --   ---xx   gd1979-12-28d1t10.flac
     5:36.10       59293964    ---   --   ---xx   gd1979-12-28d1t11.flac
    14:03.58      148841660    ---   --   ---xx   gd1979-12-28d2t01.flac
    17:22.71      183975836    ---   --   ---xx   gd1979-12-28d2t02.flac
     7:45.02       82030748    ---   --   ---xx   gd1979-12-28d2t03.flac
     2:01.17       21384428    ---   --   ---xx   gd1979-12-28d2t04.flac
     9:36.37      101693468    ---   --   ---xx   gd1979-12-28d2t05.flac
     4:04.49       43156892    ---   --   ---xx   gd1979-12-28d2t06.flac
     6:33.33       69402860    ---   --   ---xx   gd1979-12-28d2t07.flac
     7:28.04       79036652    ---   --   ---xx   gd1979-12-28d2t08.flac
     5:51.57       62050508    ---   --   ---xx   gd1979-12-28d2t09.flac
     5:06.00       53978444    ---   --   ---xx   gd1979-12-28d2t10.flac
   157:13.31     1664055036 B                     (totals for 21 files, 0.6320 overall compression ratio)

There were no sector boundary errors.



More information about the bittorrent mailing list