[bittorrent] Notorious The Ark Ann Arbor, Michigan 8/28/2009

Automated Mailer noreply-bt.e at etree.org
Fri Aug 28 22:56:15 MDT 2009


Band:           Other
Torrent Name:   Notorious The Ark Ann Arbor, Michigan 8/28/2009
Uploaded by:    zmanatl
DB Link:        
Details:        http://bt.etree.org/details.php?id=527816

Contact the seeder at http://db.etree.org/zmanatl

If the link to this show does not work, it was probably removed for
being non-trade-friendly.

Description / text file:
-------------------------
Notorious
The Ark
Ann Arbor, Michigan
8/28/2009

Source: Schoeps CCM4V'S(din)>Lunatec V2>Benchmark AD2K>
Sound Devices 722 (24/48) 
Location: FOB/DRFC/KFC/ZFC/AARP 5th Row, Seat 1, 5' High
DSP: Sound Devices 722>Sound Forge 9.0>CD Wave>flac(16)
Recorded By: Z-Man
Seeded By: Z-Man
  
Disc I 1st Set

01 Introduction By Marty
02 Hayman's Reel
03 *The Last Chance
04 River Falls Waltz
05 Old Aunt Jenny With Her Night Cap On >
06 Elkins
07 Banter About The Ice Storm
08 The Ice Storm
09 Banter About Grandfather's 90th Birthday/louie Prima
10 All Night Long
11 Lady Be Good
12 Lucky Penny
13 Dodie Lee
14 Romanian Train Song

Disc II 2nd Set 

01 #Along The Fields
02 #
03 Banter About Mike Seeger and The Boat Man
04 The Boat Man
05 There Ain't No Ash To Burn
06 Larry Banter
07 @Rairoad Bill
08 Romanian Wedding Song
09 Sittin' On Top Of The World
10 Banter About Two Rivers
11 Two Rivers
12 ? Jig
13 Romanian National Anthem >
14 
Encore:
15 Banter/Dedication To Chris and Kelsie
16 *Lonesome John
17 Sarah Jane

* Eden Clogs
# Eden Solo 
@ Larry Solo

Flac Fingerprint 

notorious2009-08-28d01t01.flac:fcfa5da3d7ece9fea1605337bfa95662
notorious2009-08-28d01t02.flac:07807f829175b79fc3a984fe3d111507
notorious2009-08-28d01t03.flac:f9778ca9c4fae567e01d507853520a26
notorious2009-08-28d01t04.flac:b01023d3da81057e6f7a7aa0c6939f9c
notorious2009-08-28d01t05.flac:3ebf3ddf1156e7f2744582cec544e090
notorious2009-08-28d01t06.flac:99f1e2327cac63e866940a0e5bdc54aa
notorious2009-08-28d01t07.flac:22e371ccdbaed99b03383c9ab4de1cf5
notorious2009-08-28d01t08.flac:ba77c87bebe154c7d34d597cb271b78e
notorious2009-08-28d01t09.flac:ffeace9888c613fa3781acbe7e525f02
notorious2009-08-28d01t10.flac:8fc09e9ce2b05d1723ee5746093bf0d3
notorious2009-08-28d01t11.flac:e0f55371caec5233001b1dc1149892ce
notorious2009-08-28d01t12.flac:dc381c883ac6d167dd523ace1b9a360f
notorious2009-08-28d01t13.flac:6d686347a7dafaa42cecd19bab935aad
notorious2009-08-28d01t14.flac:527d549b0f62b4d730b01c510098d4c1
notorious2009-08-28d02t01.flac:cb8dba7b56200f251b030818aa4309e5
notorious2009-08-28d02t02.flac:51bad8fb26795b738af0e78d59af7e88
notorious2009-08-28d02t03.flac:9c1c36130c588204a14d0eb48e33bfb8
notorious2009-08-28d02t04.flac:d667bce933659facd1bf65605408dd80
notorious2009-08-28d02t05.flac:f64244b368b3ae9866454e2361a39767
notorious2009-08-28d02t06.flac:f040378186882bdbae6e333b634b6554
notorious2009-08-28d02t07.flac:06f84248644617e4349c0b213def51f9
notorious2009-08-28d02t08.flac:ad9f8b6f6538bef1737b588941d26efd
notorious2009-08-28d02t09.flac:005534124bfffe540bf979ec8acfed1e
notorious2009-08-28d02t10.flac:bad94211c7e55fa72dd2a33a0dc4d0ae
notorious2009-08-28d02t11.flac:bfed6cbf805d4aa9e42498d72c40f2d9
notorious2009-08-28d02t12.flac:f6b0f6354615f3daeda4a6648380b3d8
notorious2009-08-28d02t13.flac:95df538dc62a3242484b23e023e6adbd
notorious2009-08-28d02t14.flac:9e8afb2f93d3ab0b2a63aa2015b0c517
notorious2009-08-28d02t15.flac:eb38d78e31f40f67b4ff5323800afae2
notorious2009-08-28d02t16.flac:8adf9dfb33f094b97888eddea28313bb
notorious2009-08-28d02t17.flac:a238d8299bbdde94bd288dc000030c7e
 
shntool

    length     expanded size    cdr  WAVE problems  fmt   ratio  filename
     1:08.14       12028172 B   ---   --   ---xx   flac  0.4662  notorious2009-08-28d01t01.flac
     4:00.03       42343100 B   ---   --   ---xx   flac  0.4320  notorious2009-08-28d01t02.flac
     3:41.06       38998556 B   ---   --   ---xx   flac  0.4128  notorious2009-08-28d01t03.flac
     4:40.13       49422620 B   ---   --   ---xx   flac  0.4120  notorious2009-08-28d01t04.flac
     1:46.55       18827804 B   ---   --   ---xx   flac  0.5087  notorious2009-08-28d01t05.flac
     2:45.68       29265980 B   ---   --   ---xx   flac  0.4493  notorious2009-08-28d01t06.flac
     1:17.17       13622828 B   ---   --   ---xx   flac  0.3146  notorious2009-08-28d01t07.flac
     4:34.65       48486524 B   ---   --   ---xx   flac  0.4662  notorious2009-08-28d01t08.flac
     1:29.66       15854876 B   ---   --   ---xx   flac  0.3083  notorious2009-08-28d01t09.flac
     5:33.56       58872956 B   ---   --   ---xx   flac  0.3203  notorious2009-08-28d01t10.flac
     4:25.47       46856588 B   ---   --   ---xx   flac  0.4685  notorious2009-08-28d01t11.flac
     5:39.01       59801996 B   ---   --   ---xx   flac  0.3923  notorious2009-08-28d01t12.flac
     5:14.11       55415516 B   ---   --   ---xx   flac  0.3520  notorious2009-08-28d01t13.flac
     4:10.48       44212940 B   ---   --   ---xx   flac  0.4588  notorious2009-08-28d01t14.flac
     3:04.24       32514092 B   ---   --   ---xx   flac  0.3707  notorious2009-08-28d02t01.flac
     2:21.43       24973580 B   ---   --   ---xx   flac  0.3603  notorious2009-08-28d02t02.flac
     1:01.49       10875692 B   ---   --   ---xx   flac  0.3087  notorious2009-08-28d02t03.flac
     3:58.22       42034988 B   ---   --   ---xx   flac  0.3786  notorious2009-08-28d02t04.flac
     6:05.00       64386044 B   ---   --   ---xx   flac  0.3940  notorious2009-08-28d02t05.flac
     0:48.57        8601308 B   ---   --   ---xx   flac  0.3017  notorious2009-08-28d02t06.flac
     2:54.65       30846524 B   ---   --   ---xx   flac  0.3196  notorious2009-08-28d02t07.flac
     5:55.31       62694956 B   ---   --   ---xx   flac  0.3460  notorious2009-08-28d02t08.flac
     4:05.74       43392092 B   ---   --   ---xx   flac  0.4004  notorious2009-08-28d02t09.flac
     1:09.68       12331580 B   ---   --   ---xx   flac  0.3228  notorious2009-08-28d02t10.flac
     4:59.02       52748348 B   ---   --   ---xx   flac  0.4041  notorious2009-08-28d02t11.flac
     4:45.51       50393996 B   ---   --   ---xx   flac  0.4356  notorious2009-08-28d02t12.flac
     3:22.53       35757500 B   ---   --   ---xx   flac  0.3140  notorious2009-08-28d02t13.flac
     2:12.33       23362460 B   ---   --   ---xx   flac  0.4979  notorious2009-08-28d02t14.flac
     3:03.23       32335340 B   ---   --   ---xx   flac  0.3444  notorious2009-08-28d02t15.flac
     2:38.48       27984140 B   ---   --   ---xx   flac  0.4142  notorious2009-08-28d02t16.flac
     2:36.02       27523148 B   ---   --   ---xx   flac  0.5134  notorious2009-08-28d02t17.flac
   105:30.65     1116766244 B                            0.3968  (31 files)








More information about the bittorrent mailing list