[bittorrent] Ancient Harmony 2009-08-22 Five Spot-Atlanta fob AKG 391

Automated Mailer noreply-bt.e at etree.org
Thu Aug 27 13:01:35 MDT 2009


Band:           Ancient Harmony
Torrent Name:   Ancient Harmony 2009-08-22 Five Spot-Atlanta fob AKG 391
Uploaded by:    scarletfire1111
DB Link:        
Details:        http://bt.etree.org/details.php?id=527790

Contact the seeder at http://db.etree.org/scarletfire1111

If the link to this show does not work, it was probably removed for
being non-trade-friendly.

Description / text file:
-------------------------
Ancient Harmony
August 22, 2009
Five Spot, Atlanta, GA

Now performing as a trio:

Shell Stamps- lead guitar, vocals 
Steve Patton- bass guitar, vocals 
Chad Jackson- drums/percussion, vocals

http://www.myspace.com/ancientharmony

Source: fob, dfc, 12' out, AKG 391 > Edirol UA-5 (BM2P+ mod) > optical > I-River H120 
Transfer: H120 > HDD > Adobe Audition 2.0 (fades, levels, no other DAE) > CDWave > FLAC
Recorded and seeded by Michael Hughey

One Set:

01 - Ever
02 - Wheels->
03 - 7
04 - Bump
05 - Midnight Moonlight
06 - Self Destruction
07 - Memory

E:
08 - Why Don't We Do It in the Road
09 - Lovin' Cup


notes: for CD-burning to 2 CDs, a good spot to break is between tracks 05 and 06. 


SHNTool len output:
    length     expanded size   cdr  WAVE problems filename
    10:23.26      109958396    ---   --   ---xx   ah2009-08-22.t01_Ever.flac
    13:15.48      140350940    ---   --   ---xx   ah2009-08-22.t02_Wheels.flac
    12:04.61      127857116    ---   --   ---xx   ah2009-08-22.t03_7.flac
    11:07.17      117698828    ---   --   ---xx   ah2009-08-22.t04_Bump.flac
     6:25.51       68033996    ---   --   ---xx   ah2009-08-22.t05_Midnight Moonlight.flac
    10:35.59      112152812    ---   --   ---xx   ah2009-08-22.t06_Self Destruction.flac
    25:51.32      273671708    ---   --   ---xx   ah2009-08-22.t07_Memory.flac
     4:45.48       50386940    ---   --   ---xx   ah2009-08-22.t08_Why Dont We Do It In The Road.flac
    14:22.65      152209724    ---   --   ---xx   ah2009-08-22.t09_Lovin Cup.flac
   108:52.32     1152320460 B                     (totals for 9 files, 0.5758 overall compression ratio)







More information about the bittorrent mailing list