[bittorrent] Keller Williams - NWSS - Horning's Hideout -North Plains, OR - 07-18-2008

Automated Mailer noreply-bt.e at etree.org
Mon Aug 24 21:59:12 MDT 2009


Band:           Keller Williams
Torrent Name:   Keller Williams - NWSS - Horning's Hideout -North Plains, OR - 07-18-2008 
Uploaded by:    mckenzie9482
DB Link:        http://db.etree.org/shn/100857
Details:        http://bt.etree.org/details.php?id=527737

Contact the seeder at http://db.etree.org/mckenzie9482

If the link to this show does not work, it was probably removed for
being non-trade-friendly.

Description / text file:
-------------------------
Keller Williams
Northwest String Summit
Horning's Hideout
North Plains, OR
07-18-2008

source:
Microtech Gefell SMS2000's w/M20 cardiod capsules  (ORTF/FOB) > Audio Magic X-Streams > Grace Designs Lunatec V3 (ANSR-on) 48kHz > Tascam DA-P1
 
transfer:
Tascam DA-40 > AP2496 (48kHz>44.1kHz) > HD > CDWave > EAC > Plextor 2440A > CD-R

taper:
Leftover Sammy

set I disc I:

01. Molly Malloy
02. Can't Come Down > Do The Hustle >
03. Kidney In A Cooler
04. Get On Up > Money, Money, Money > Jam >
05. Get On Up
06. The Crossroads Bar* > Basket Case*
07. Cadillac >
08. More Than A Little

disc II:

01. Pancho And Lefty ^
02. Comes A Time ^ (Neil)
03. Keep It Simple >
04. Novelty Song +
05. You May Be Right +
06. Vocal Jam Loop >
07. Groove Of The Storm > Yoni >
08. Candyman @


*Dave Johnston 
^Adam Aijala
+Ben Kaufmann
@Jeff Austin

-----------------------------------------------------------------------
    length     expanded size    cdr  WAVE problems  fmt   ratio  filename
     4:34.73       48505340 B   ---   --   ---xx   flac  0.3707  kw2008-07-18d1t01.flac
     5:41.62       60298268 B   ---   --   ---xx   flac  0.4019  kw2008-07-18d1t02.flac
     5:12.19       55081532 B   ---   --   ---xx   flac  0.4179  kw2008-07-18d1t03.flac
    13:36.21      143991836 B   ---   --   ---xx   flac  0.3846  kw2008-07-18d1t04.flac
     3:46.29       39934652 B   ---   --   ---xx   flac  0.4203  kw2008-07-18d1t05.flac
     5:27.45       57788684 B   ---   --   ---xx   flac  0.4455  kw2008-07-18d1t06.flac
     4:21.35       46122764 B   ---   --   ---xx   flac  0.4078  kw2008-07-18d1t07.flac
     8:09.55       86389004 B   ---   --   ---xx   flac  0.3921  kw2008-07-18d1t08.flac
     5:43.43       60606380 B   ---   --   ---xx   flac  0.4264  kw2008-07-18d2t01.flac
     3:14.21       34271036 B   ---   --   ---xx   flac  0.4176  kw2008-07-18d2t02.flac
    12:49.59      135790412 B   ---   --   ---xx   flac  0.4030  kw2008-07-18d2t03.flac
     5:56.29       62866652 B   ---   --   ---xx   flac  0.3670  kw2008-07-18d2t04.flac
     4:51.73       51504140 B   ---   --   ---xx   flac  0.4388  kw2008-07-18d2t05.flac
     5:34.28       58983500 B   ---   --   ---xx   flac  0.4032  kw2008-07-18d2t06.flac
    12:16.69      129992732 B   ---   --   ---xx   flac  0.4206  kw2008-07-18d2t07.flac
     4:29.45       47557484 B   ---   --   ---xx   flac  0.4427  kw2008-07-18d2t08.flac
   105:47.31     1119684416 B                            0.4072  (16 files)




More information about the bittorrent mailing list