[bittorrent] The Pines The Ark Ann Arbor, Michigan 8/23/2009

Automated Mailer noreply-bt.e at etree.org
Mon Aug 24 07:54:23 MDT 2009


Band:           Other
Torrent Name:   The Pines The Ark Ann Arbor, Michigan 8/23/2009
Uploaded by:    zmanatl
DB Link:        
Details:        http://bt.etree.org/details.php?id=527726

Contact the seeder at http://db.etree.org/zmanatl

If the link to this show does not work, it was probably removed for
being non-trade-friendly.

Description / text file:
-------------------------
The Pines
The Ark
Ann Arbor, Michigan
8/23/2009

Source: Schoeps CCM4V'S(din)>Lunatec V2>Benchmark AD2K>
Sound Devices 722 (24/48) 
Location: FOB/DFC/KFC/ZFC/AARP Row B, Seat 4, 6' High
DSP: Sound Devices 722>Sound Forge 9.0>CD Wave>flac(16)
Recorded By: Z-Man
Seeded By: Z-Man
  
Disc I

01 Announcements And Introduction By Bill
02 Pale White Horse
03 Throw Me In The River
04 Pray Tell
05 Heart And Bones
06 Banter About Heart And Bones
07 Shine On Moon
08 Skipper And His Wife
09 Lonesome Tremelo
10 Banter On The Trip Back Home
11 Meadows Of Dawn
12 Goin' Home
13 Spike Driver Blues
14 Shining Shoes
15 Without A Kiss
Encore:
16 Banter - Thanks/Ark Shirt
17 Midnight Sun

Flac Fingerprint 

thepines2009-08-23d01t01.flac:179a06155bd87bd1a2a007c43959907a
thepines2009-08-23d01t02.flac:952ad51bf2a9f3d8a57d5e60c39d4c4c
thepines2009-08-23d01t03.flac:d5e7f9a512de80f31a85afc1f6fc57f9
thepines2009-08-23d01t04.flac:1809ca66c66c325833b47baae6ab0203
thepines2009-08-23d01t05.flac:1bbfd881c1a82e0df78ce8647bbf2986
thepines2009-08-23d01t06.flac:f26d34a646a9c3794ee343054663d669
thepines2009-08-23d01t07.flac:cf7557a02b0fc643c29a4c2cac8ea2a3
thepines2009-08-23d01t08.flac:68686e4000b69b3e87aedce135e92af1
thepines2009-08-23d01t09.flac:356f6ca0e2b84dcbc6a8bd7ca9f850b6
thepines2009-08-23d01t10.flac:5de55ccbf04db47b999bb9dde74d6b89
thepines2009-08-23d01t11.flac:1ec90e8502d1aee5e41f2b3cef557112
thepines2009-08-23d01t12.flac:85e1a42db17832af1716eef32758f4ab
thepines2009-08-23d01t13.flac:6d9f3bf1369b8a1e0cda418f4e301cfe
thepines2009-08-23d01t14.flac:d856dfa2001b24fd6d63cbb987a67e7c
thepines2009-08-23d01t15.flac:c8e099ecb208652c71aa7980d29ffc18
thepines2009-08-23d01t16.flac:0f4673e39f56e41af5377a55ea9be42d
thepines2009-08-23d01t17.flac:05324def35d0ff06f2bd7b3575da62e6

shntool 

    length     expanded size    cdr  WAVE problems  fmt   ratio  filename
     1:06.54       11769452 B   ---   --   ---xx   flac  0.4237  thepines2009-08-23d01t01.flac
     6:16.06       66340556 B   ---   --   ---xx   flac  0.3815  thepines2009-08-23d01t02.flac
     4:17.62       45480668 B   ---   --   ---xx   flac  0.3235  thepines2009-08-23d01t03.flac
     5:32.25       58623644 B   ---   --   ---xx   flac  0.3977  thepines2009-08-23d01t04.flac
     5:16.48       55855340 B   ---   --   ---xx   flac  0.3460  thepines2009-08-23d01t05.flac
     1:50.60       19545164 B   ---   --   ---xx   flac  0.2985  thepines2009-08-23d01t06.flac
     5:41.50       60270044 B   ---   --   ---xx   flac  0.3920  thepines2009-08-23d01t07.flac
     4:52.26       51569996 B   ---   --   ---xx   flac  0.3664  thepines2009-08-23d01t08.flac
     6:07.51       64858796 B   ---   --   ---xx   flac  0.3932  thepines2009-08-23d01t09.flac
     0:53.34        9429212 B   ---   --   ---xx   flac  0.3058  thepines2009-08-23d01t10.flac
     5:56.63       62946620 B   ---   --   ---xx   flac  0.3387  thepines2009-08-23d01t11.flac
     5:09.37       54594668 B   ---   --   ---xx   flac  0.3618  thepines2009-08-23d01t12.flac
     4:46.08       50469260 B   ---   --   ---xx   flac  0.3851  thepines2009-08-23d01t13.flac
     7:22.10       77992364 B   ---   --   ---xx   flac  0.3650  thepines2009-08-23d01t14.flac
     4:55.20       52085084 B   ---   --   ---xx   flac  0.4152  thepines2009-08-23d01t15.flac
     1:59.29       21059852 B   ---   --   ---xx   flac  0.2852  thepines2009-08-23d01t16.flac
     6:10.02       65272748 B   ---   --   ---xx   flac  0.3844  thepines2009-08-23d01t17.flac
    78:14.60      828163468 B                            0.3696  (17 files)







More information about the bittorrent mailing list