[bittorrent] Sunshine Family Band Nelson Ledges Garretsville, Ohio 8/1/2009

Automated Mailer noreply-bt.e at etree.org
Fri Aug 21 19:01:03 MDT 2009


Band:           Other
Torrent Name:   Sunshine Family Band Nelson Ledges Garretsville, Ohio 8/1/2009
Uploaded by:    zmanatl
DB Link:        
Details:        http://bt.etree.org/details.php?id=527673

Contact the seeder at http://db.etree.org/zmanatl

If the link to this show does not work, it was probably removed for
being non-trade-friendly.

Description / text file:
-------------------------
Sunshine Family Band
Jerry Garcia's Birthday Bash
Nelson Ledges Quarry Park
Garretsville, Ohio
8/1/2009

Source: Schoeps CCM4V'S(din)>Lunatec V2>Benchmark AD2K>
Sound Devices 722 (24/48) 
Location: FOB/DFC/KFC/ZFC/AARP 36' From Stage, 6' High
DSP: Sound Devices 722>Sound Forge 9.0>CD Wave>flac(16)
Recorded By: Z-Man
Seeded By: Z-Man
  
Disc I 

01 Jam >
02 Don't Ease Me In
03 Turn On Your Lovelight
04 Sugaree
05 Cripple Creek 

Disc II 

01 *All Along The Watchtower
02 He's Gone 
03 Crazy Fingers
04 Cold Rain And Snow

* With Bobby Lee Rogers On Guitar

Flac Fingerprint 

sfb2009-08-01d01t01.flac:3a05b8f1d6762aab61959c091f10e6d1
sfb2009-08-01d01t02.flac:770256ac92398123c21e35541b7757aa
sfb2009-08-01d01t03.flac:6086391d70bb9888b1bc708cfe29a24d
sfb2009-08-01d01t04.flac:57b60e1b5b528e172cb43759806fedf4
sfb2009-08-01d01t05.flac:deac52eb09536f427629f24eb5ecf593
sfb2009-08-01d02t01.flac:71970869e715ce553a0e508de84db7c7
sfb2009-08-01d02t02.flac:f8292256167c1f608a282f3ee2b45982
sfb2009-08-01d02t03.flac:5e1ae2b2c814e419f542f582bf01b98b
sfb2009-08-01d02t04.flac:d3e1f2936e1329adcfd8ae1fa4be8e3f

shntool 

    length     expanded size    cdr  WAVE problems  fmt   ratio  filename
     8:33.18       90535580 B   ---   --   ---xx   flac  0.5033  sfb2009-08-01d01t01.flac
     3:34.19       37794332 B   ---   --   ---xx   flac  0.5172  sfb2009-08-01d01t02.flac
     9:57.27      105374348 B   ---   --   ---xx   flac  0.4974  sfb2009-08-01d01t03.flac
    13:53.10      146964764 B   ---   --   ---xx   flac  0.4830  sfb2009-08-01d01t04.flac
     5:32.10       58588364 B   ---   --   ---xx   flac  0.4965  sfb2009-08-01d01t05.flac
    15:30.57      164186108 B   ---   --   ---xx   flac  0.5080  sfb2009-08-01d02t01.flac
     9:50.54      104203052 B   ---   --   ---xx   flac  0.4675  sfb2009-08-01d02t02.flac
     8:34.04       90679052 B   ---   --   ---xx   flac  0.4616  sfb2009-08-01d02t03.flac
    10:40.54      113023052 B   ---   --   ---xx   flac  0.5130  sfb2009-08-01d02t04.flac
    86:06.28      911348652 B                            0.4933  (9 files)






More information about the bittorrent mailing list